Zero Dark Thirty (2012) 1080p Full Torrent Magnet Download

Download Torrent Zero Dark Thirty (2012) 1080p Movie Full in HD Result. Movie Zero Dark Thirty (2012) 1080p Torrent Download full. Movie Zero Dark Thirty (2012) 1080p torrent Magnet Download Full. Zero Dark Thirty (2012) 1080p Full Movie Torrent Download And Magnet Download For your PC And Mobiles. Latest Movie Zero Dark Thirty (2012) 1080p Download Link In Bottom.

Torrent And Magnet Links Below

The greatest manhunt in history…

Zero Dark Thirty (2012) 1080p 10bit Bluray x265 HEVC [Org BD DD+ 5.1 Hindi + DD 5.1 English] ESubs ~ TombDoc

Code:

Format : Matroska

Format version : Version 4

File size : 5.74 GiB

Duration : 2 h 36 min

Overall bit rate : 5 237 kb/s

Video

ID : 1

Format : HEVC

Format/Info : High Efficiency Video Coding

Format profile : Main [email protected]@Main

Codec ID : V_MPEGH/ISO/HEVC

Duration : 2 h 36 min

Bit rate : 4 001 kb/s

Width : 1 920 pixels

Height : 1 036 pixels

Display aspect ratio : 1.85:1

Frame rate mode : Constant

Frame rate : 23.976 (24000/1001) FPS

Color space : YUV

Chroma subsampling : 4:2:0

Bit depth : 10 bits

Bits/(Pixel*Frame) : 0.084

Stream size : 4.39 GiB (76%)

Writing library : x265 3.4+6-g73f96ff39:[Windows][GCC 11.0.0][64 bit] 10bit

Encoding settings : cpuid=1111039 / frame-threads=4 / numa-pools=24 / wpp / no-pmode / no-pme / no-psnr / no-ssim / log-level=2 / input-csp=1 / input-res=1920×1036 / interlace=0 / total-frames=225839 / level-idc=0 / high-tier=1 / uhd-bd=0 / ref=5 / no-allow-non-conformance / no-repeat-headers / annexb / no-aud / no-hrd / info / hash=0 / no-temporal-layers / open-gop / min-keyint=23 / keyint=250 / gop-lookahead=0 / bframes=8 / b-adapt=2 / b-pyramid / bframe-bias=0 / rc-lookahead=100 / lookahead-slices=4 / scenecut=40 / hist-scenecut=0 / radl=0 / no-splice / no-intra-refresh / ctu=64 / min-cu-size=8 / rect / amp / max-tu-size=32 / tu-inter-depth=2 / tu-intra-depth=2 / limit-tu=1 / rdoq-level=2 / dynamic-rd=0.00 / ssim-rd / signhide / no-tskip / nr-intra=0 / nr-inter=0 / no-constrained-intra / strong-intra-smoothing / max-merge=5 / limit-refs=3 / limit-modes / me=3 / subme=6 / merange=57 / temporal-mvp / no-frame-dup / no-hme / weightp / no-weightb / no-analyze-src-pics / deblock=0:0 / sao / no-sao-non-deblock / rd=4 / selective-sao=4 / no-early-skip / no-rskip / no-fast-intra / no-tskip-fast / no-cu-lossless / no-b-intra / no-splitrd-skip / rdpenalty=0 / psy-rd=0.00 / psy-rdoq=2.00 / no-rd-refine / no-lossless / cbqpoffs=0 / crqpoffs=0 / rc=abr / bitrate=4000 / qcomp=0.60 / qpstep=4 / stats-write=0 / stats-read=2 / cplxblur=20.0 / qblur=0.5 / ipratio=1.40 / pbratio=1.30 / aq-mode=4 / aq-strength=1.00 / cutree / zone-count=0 / no-strict-cbr / qg-size=32 / rc-grain / qpmax=69 / qpmin=0 / no-const-vbv / sar=0 / overscan=0 / videoformat=5 / range=0 / colorprim=2 / transfer=2 / colormatrix=2 / chromaloc=0 / display-window=0 / cll=0,0 / min-luma=0 / max-luma=1023 / log2-max-poc-lsb=8 / vui-timing-info / vui-hrd-info / slices=1 / no-opt-qp-pps / no-opt-ref-list-length-pps / no-multi-pass-opt-rps / scenecut-bias=0.05 / hist-threshold=0.01 / no-opt-cu-delta-qp / aq-motion / no-hdr10 / no-hdr10-opt / no-dhdr10-opt / no-idr-recovery-sei / analysis-reuse-level=0 / analysis-save-reuse-level=0 / analysis-load-reuse-level=0 / scale-factor=0 / refine-intra=0 / refine-inter=0 / refine-mv=1 / refine-ctu-distortion=0 / no-limit-sao / ctu-info=0 / no-lowpass-dct / refine-analysis-type=0 / copy-pic=1 / max-ausize-factor=1.0 / no-dynamic-refine / no-single-sei / hevc-aq / no-svt / no-field / qp-adaptation-range=1.00 / no-scenecut-aware-qpconformance-window-offsets / right=0 / bottom=0 / decoder-max-rate=0

Default : Yes

Forced : No

Audio #1

ID : 2

Format : E-AC-3

Format/Info : Enhanced AC-3

Commercial name : Dolby Digital Plus

Codec ID : A_EAC3

Duration : 2 h 36 min

Bit rate mode : Constant

Bit rate : 768 kb/s

Channel(s) : 6 channels

Channel layout : L R C LFE Ls Rs

Sampling rate : 48.0 kHz

Frame rate : 31.250 FPS (1536 SPF)

Compression mode : Lossy

Stream size : 862 MiB (15%)

Title : Org BD DD+ 5.1 768Kbps ~ TombDoc

Language : Hindi

Service kind : Complete Main

Default : Yes

Forced : Yes

Audio #2

ID : 3

Format : E-AC-3

Format/Info : Enhanced AC-3

Commercial name : Dolby Digital Plus

Codec ID : A_EAC3

Duration : 2 h 36 min

Bit rate mode : Constant

Bit rate : 448 kb/s

Channel(s) : 6 channels

Channel layout : L R C LFE Ls Rs

Sampling rate : 48.0 kHz

Frame rate : 31.250 FPS (1536 SPF)

Compression mode : Lossy

Stream size : 503 MiB (9%)

Title : DD+ 5.1 English

Language : English

Service kind : Complete Main

Default : No

Forced : No

Text #1

ID : 4

Format : PGS

Muxing mode : zlib

Codec ID : S_HDMV/PGS

Codec ID/Info : Picture based subtitle format used on BDs/HD-DVDs

Duration : 1 h 47 min

Bit rate : 337 b/s

Count of elements : 30

Stream size : 267 KiB (0%)

Title : Eng BD-PGS {Forced}

Language : English

Default : Yes

Forced : No

Text #2

ID : 5

Format : PGS

Muxing mode : zlib

Codec ID : S_HDMV/PGS

Codec ID/Info : Picture based subtitle format used on BDs/HD-DVDs

Duration : 2 h 28 min

Bit rate : 35.1 kb/s

Count of elements : 3394

Stream size : 37.2 MiB (1%)

Title : Eng BD-PGS

Language : English

Default : No

Forced : No

Text #3

ID : 6

Format : PGS

Muxing mode : zlib

Codec ID : S_HDMV/PGS

Codec ID/Info : Picture based subtitle format used on BDs/HD-DVDs

Duration : 2 h 28 min

Bit rate : 34.8 kb/s

Count of elements : 4451

Stream size : 37.1 MiB (1%)

Title : Eng BD-PGS-SDH

Language : English

Default : No

Forced : No

Menu

00:00:00.000 : en:00:00:00.000

00:09:50.298 : en:00:09:50.298

00:15:42.650 : en:00:15:42.650

00:23:05.884 : en:00:23:05.884

00:31:23.048 : en:00:31:23.048

00:41:35.201 : en:00:41:35.201

00:50:30.694 : en:00:50:30.694

01:04:11.806 : en:01:04:11.806

01:13:37.705 : en:01:13:37.705

01:20:27.656 : en:01:20:27.656

01:34:05.849 : en:01:34:05.849

01:46:46.191 : en:01:46:46.191

01:53:17.332 : en:01:53:17.332

02:02:37.725 : en:02:02:37.725

02:14:08.874 : en:02:14:08.874

02:22:34.588 : en:02:22:34.588

Code:

Source: Zero Dark Thirty 2012 1080p Blu-ray AVC DTS-HD MA 5 1-TRUEDEF

EnjOyY the Quality…


Zero Dark Thirty (2012) 1080pDownload Torrent Magnet

#Dark #1080p