Zack Snyder’s Justice League Full Torrent Magnet Download

Download Torrent Zack Snyder’s Justice League Movie Full in HD Result. Movie Zack Snyder’s Justice League Torrent Download full. Movie Zack Snyder’s Justice League torrent Magnet Download Full. Zack Snyder’s Justice League Full Movie Torrent Download And Magnet Download For your PC And Mobiles. Latest Movie Zack Snyder’s Justice League Download Link In Bottom.

Torrent And Magnet Links Below

______________________________________________________________________________________________________________
Justice League 5.1
Zack Snyder’s Justice League 2021
Bluray · 1080p x265 10bit · DD+ 5.1 VFF ENG
More Bonus
¯¯¯¯¯¯¯¯¯¯¯¯¯¯¯¯¯¯¯¯¯¯¯¯¯¯¯¯¯¯¯¯¯¯¯¯¯¯¯¯¯¯¯¯¯¯¯¯¯¯¯¯¯¯¯¯¯¯¯¯¯¯¯¯¯¯¯¯¯¯¯¯¯¯¯¯¯¯¯¯

Year : 2021

Country : United States, United Kingdom

Original, French and English Title : Zack Snyder’s Justice League

Director : Zack Snyder
Music from : Danny Elfman

Actors : Ben Affleck, Henry Cavill, Amy Adams, Gal Gadot, Ray Fisher, Jason Momoa, Ezra Miller, Willem Dafoe, Jesse Eisenberg

Jeremy Irons, Diane Lane, Connie Nielsen, J. K. Simmons, Ciarán Hinds, Ryan Zheng, Amber Heard, Joe Morton, Lisa Loven Kongsli

David Thewlis

Genre : Super hero, Action, Sci-Fi, Adventure, Fantasy

Certificate : Not recommended for children under 12 years old
Budget : 350 000 000 $ · Recipe : 656 977 297 $ · ratio : 188 %

Link : Allociné 4,3 /5 · IMDB 8,1 /10 · TMDB 85 % · SensCritique 6,7 /10 · Wiki · Bande Annonce

French Plot
Bruce Wayne est déterminé à faire en sorte que le sacrifice ultime de Superman ne soit pas vain. Pour cela, avec l’aide de Diana Prince , il met en place un plan pour recruter une équipe de métahumains afin de protéger le monde d’une menace apocalyptique imminente . La tâche s’avère plus difficile que Bruce ne l’imaginait, car chacune des recrues doit faire face aux démons de son passé et les surpasser pour se rassembler et former une ligue de héros sans précédent. Désormais unis, Batman , Wonder Woman , Aquaman , Cyborg et Flash réussiront-ils à sauver la planète de Steppenwolf , DeSaad , Darkseid et de leurs terribles intentions ?

Adaptations des : DC Comics 1935

Bonus
4-3 Format 7 s – 68,60 Kib – 1920×1080 HEVC 10Bits – MUET – df47673c
Making of 24 mn – 285,0 Mib – 1920×1080 HEVC 10Bits – VOSTFR – 221e6af7
Bluray Opening Fix 2 mn – 7,70 Mib – 1920×1080 HEVC 10Bits – MUSIQUE – ddbcab4d
Bluray Opening 2 mn – 24,20 Mib – 1920×1080 HEVC 10Bits – MUET – bb292aba
Bluray Opening 2 mn – 24,20 Mib – 1920×1080 HEVC 10Bits – MUSIQUE – fa39b1c7
5 bonus, total 341,2 Mib 30 mn

DC Universe
Year 2013 : Man of Steel + Bonus
Year 2016 : Batman v Superman : Dawn of Justice
Year 2016 : Suicide squad + Bonus
Year 2017 : Wonder Woman + Bonus
Year 2017 : Justice League + Bonus
Year 2018 : Aquaman + Bonus
Year 2019 : Shazam! + Bonus
Year 2020 : Birds of Prey et la fantabuleuse histoire de Harley Quinn + Bonus
Year 2020 : Wonder Woman 1984 + Bonus
Year 2021 : Zack Snyder’s Justice League + Bonus


If you enjoy and wish to support, please stay in seeding

Technical Details
¯¯¯¯¯¯¯¯¯¯¯¯¯¯¯¯¯¯¯¯¯¯¯¯¯¯¯¯¯¯¯¯¯¯¯¯¯¯¯¯¯¯¯¯¯¯¯¯¯¯¯¯¯¯¯¯¯¯¯¯¯¯¯¯¯¯¯¯¯¯¯¯¯¯¯¯¯¯¯¯¯¯¯¯¯¯¯¯¯¯¯¯¯¯¯¯¯¯¯¯
Media
Matroska 7,80 Gio 4 h02 mn 4613 Kbps, Total 8,13 Gio 4 h32 mn
Video
HEVC/H265 1440 x1080 @23.976 [email protected]@Main 10 bits 3700 Kbps VerySlow qp26,00
Audio
True French 5.1 EAC3 448 Kbps 48KHz 16bits

English (OV) 5.1 EAC3 448 Kbps 48KHz 16bits

Subtitles
True French forced SRT
True French full SRT
True French forced PGS
True French full PGS
English full SDH PGS
Chapters
International, True French, English

Screenshot

Origin
Bluray : AVC 1080p 23142 Kbps, ENG 7.1 Dolby TrueHD+Atmos 3159 Kbps [ESiR] + VFF 7.1 Dolby TrueHD+Atmos 3138 Kbps [4k,CYBER]

NFO
¯¯¯¯¯¯¯¯¯¯¯¯¯¯¯¯¯¯¯¯¯¯¯¯¯¯¯¯¯¯¯¯¯¯¯¯¯¯¯¯¯¯¯¯¯¯¯¯¯¯¯¯¯¯¯¯¯¯¯¯¯¯¯¯¯¯¯¯¯¯¯¯¯¯¯¯¯¯¯¯¯¯¯¯¯¯¯¯¯¯¯¯¯¯¯¯¯¯¯¯

General
Complete name : Zack Snyder s Justice League 2021 BR EAC3 VFF ENG 1080p x265 10Bits T0M.mkv

Format : Matroska
Format version : Version 4

File size : 7.80 GiB
Duration : 4 h 2 min

Overall bit rate : 4 613 kb/s

Movie name : Zack Snyder’s Justice League 2021 de Zack Snyder avec Ben Affleck, Henry Cavill, Amy Adams, Gal Gadot, Ray Fisher, Jason Momoa, Ezra Miller, Willem Dafoe, Jesse Eisenberg, Jeremy Irons. (allocine=283327,imdb=tt12361974,tmdb=791373) T0M
Encoded date : UTC 2021-05-27 11:57:34

Writing application : mkvmerge v51.0.0 (‘I Wish’) 64-bit

Writing library : libebml v1.4.0 + libmatroska v1.6.2

Cover : Yes

Attachments : Cover.jpg / Box.jpg

Video
ID : 1

Format : HEVC
Format/Info : High Efficiency Video Coding

Format profile : Main [email protected]@Main

Codec ID : V_MPEGH/ISO/HEVC

Duration : 4 h 2 min

Bit rate : 3 700 kb/s

Width : 1 440 pixels

Height : 1 080 pixels

Display aspect ratio : 4:3

Frame rate mode : Constant

Frame rate : 23.976 (24000/1001) FPS

Color space : YUV

Chroma subsampling : 4:2:0

Bit depth : 10 bits

Bits/(Pixel*Frame) : 0.099

Stream size : 6.26 GiB (80%)

Title : Video HEVC 1440×1080 (4:3) @23.976 x265 [email protected]@Main 10bits 3700kbps 2pass veryslow 7497mn qp26,00
Writing library : x265 3.2.1+1-b5c86a64bbbe:[Windows][GCC 9.2.0][64 bit] 10bit

Encoding settings : cpuid=1111039 / frame-threads=3 / numa-pools=8 / wpp / no-pmode / no-pme / no-psnr / no-ssim / log-level=2 / input-csp=1 / input-res=1440×1080 / interlace=0 / total-frames=0 / level-idc=0 / high-tier=1 / uhd-bd=0 / ref=5 / no-allow-non-conformance / no-repeat-headers / annexb / no-aud / no-hrd / info / hash=0 / no-temporal-layers / open-gop / min-keyint=24 / keyint=240 / gop-lookahead=0 / bframes=8 / b-adapt=2 / b-pyramid / bframe-bias=0 / rc-lookahead=120 / lookahead-slices=0 / scenecut=40 / radl=0 / no-splice / no-intra-refresh / ctu=64 / min-cu-size=8 / rect / amp / max-tu-size=32 / tu-inter-depth=3 / tu-intra-depth=3 / limit-tu=0 / rdoq-level=2 / dynamic-rd=0.00 / no-ssim-rd / signhide / no-tskip / nr-intra=0 / nr-inter=0 / no-constrained-intra / strong-intra-smoothing / max-merge=5 / limit-refs=0 / no-limit-modes / me=3 / subme=4 / merange=57 / temporal-mvp / no-hme / weightp / weightb / no-analyze-src-pics / deblock=0:0 / sao / no-sao-non-deblock / rd=6 / selective-sao=4 / no-early-skip / rskip / no-fast-intra / no-tskip-fast / no-cu-lossless / b-intra / no-splitrd-skip / rdpenalty=0 / psy-rd=2.00 / psy-rdoq=1.00 / no-rd-refine / no-lossless / cbqpoffs=0 / crqpoffs=0 / rc=abr / bitrate=3700 / qcomp=0.60 / qpstep=4 / stats-write=0 / stats-Read=2 / cplxblur=20.0 / qblur=0.5 / ipratio=1.40 / pbratio=1.30 / aq-mode=2 / aq-strength=1.00 / cutree / zone-count=0 / no-strict-cbr / qg-size=32 / no-rc-grain / qpmax=69 / qpmin=0 / no-const-vbv / sar=1 / overscan=0 / videoformat=5 / range=0 / colorprim=1 / transfer=1 / colormatrix=1 / chromaloc=0 / display-window=0 / cll=0,0 / min-luma=0 / max-luma=1023 / log2-max-poc-lsb=8 / vui-timing-info / vui-hrd-info / slices=1 / no-opt-qp-pps / no-opt-ref-list-length-pps / no-multi-pass-opt-rps / scenecut-bias=0.05 / no-opt-cu-delta-qp / no-aq-motion / no-hdr / no-hdr-opt / no-dhdr10-opt / no-idr-recovery-sei / analysis-reuse-level=5 / scale-factor=0 / refine-intra=0 / refine-inter=0 / refine-mv=1 / refine-ctu-distortion=0 / no-limit-sao / ctu-info=0 / no-lowpass-dct / refine-analysis-type=0 / copy-pic=1 / max-ausize-factor=1.0 / no-dynamic-refine / no-single-sei / no-hevc-aq / no-svt / no-field / qp-adaptation-range=1.00

Default : Yes

Forced : No

Color range : Limited

Color primaries : BT.709

Transfer characteristics : BT.709

Matrix coefficients : BT.709

Audio #1
ID : 2

Format : E-AC-3
Format/Info : Enhanced AC-3

Commercial name : Dolby Digital Plus

Codec ID : A_EAC3

Duration : 4 h 2 min

Bit rate mode : Constant

Bit rate : 448 kb/s

Channel(s) : 6 channels

Channel layout : L R C LFE Ls Rs

Sampling rate : 48.0 kHz

Frame rate : 31.250 FPS (1536 SPF)

Compression mode : Lossy

Delay relative to video : 2 ms

Stream size : 776 MiB (10%)

Title : Français 5.1 EAC3 448kbps 48khz 16bits
Language : French
Service kind : Complete Main

Default : Yes

Forced : No

Audio #2
ID : 3

Format : E-AC-3
Format/Info : Enhanced AC-3

Commercial name : Dolby Digital Plus

Codec ID : A_EAC3

Duration : 4 h 2 min

Bit rate mode : Constant

Bit rate : 448 kb/s

Channel(s) : 6 channels

Channel layout : L R C LFE Ls Rs

Sampling rate : 48.0 kHz

Frame rate : 31.250 FPS (1536 SPF)

Compression mode : Lossy

Delay relative to video : 2 ms

Stream size : 776 MiB (10%)

Title : English 5.1 EAC3 448kbps 48khz 16bits
Language : English
Service kind : Complete Main

Default : No

Forced : No

Text #1
ID : 4

Format : UTF-8
Codec ID : S_TEXT/UTF8

Codec ID/Info : UTF-8 Plain Text

Duration : 4 h 2 min

Bit rate : 1 b/s

Count of elements : 29

Stream size : 3.23 KiB (0%)

Title : Français forcé (Passages)
Language : French
Default : Yes

Forced : Yes

Text #2
ID : 5

Format : UTF-8
Codec ID : S_TEXT/UTF8

Codec ID/Info : UTF-8 Plain Text

Duration : 4 h 2 min

Bit rate : 28 b/s

Count of elements : 1777

Stream size : 50.9 KiB (0%)

Title : Français complet (Tous le film)
Language : French
Default : No

Forced : No

Text #3
ID : 6

Format : PGS
Muxing mode : zlib

Codec ID : S_HDMV/PGS

Codec ID/Info : Picture based subtitle format used on BDs/HD-DVDs

Duration : 3 h 44 min

Bit rate : 247 b/s

Count of elements : 38

Stream size : 407 KiB (0%)

Title : Français forcé (Passages) PGS
Language : French
Default : No

Forced : Yes

Text #4
ID : 7

Format : PGS
Muxing mode : zlib

Codec ID : S_HDMV/PGS

Codec ID/Info : Picture based subtitle format used on BDs/HD-DVDs

Duration : 3 h 55 min

Bit rate : 16.3 kb/s

Count of elements : 3538

Stream size : 27.5 MiB (0%)

Title : Français complet (Tous le film) PGS
Language : French
Default : No

Forced : No

Text #5
ID : 8

Format : PGS
Muxing mode : zlib

Codec ID : S_HDMV/PGS

Codec ID/Info : Picture based subtitle format used on BDs/HD-DVDs

Duration : 4 h 0 min

Bit rate : 25.8 kb/s

Count of elements : 5558

Stream size : 44.3 MiB (1%)

Title : English full SDH PGS
Language : English
Default : No

Forced : No

Menu
00:00:00.000 : :01 – 00:00:00 – fr:Prologue – en:Prologue

00:08:55.034 : :02 – 00:08:55 – fr:Partie 1 – Rêve pas, Batman – en:Part 1 – Don’t count on it, Batman

00:19:56.737 : :03 – 00:19:56 – fr:Partie 1.1 – en:Part 1.1

00:36:54.712 : :04 – 00:36:54 – fr:Partie 1 – L’ère des héros – en:Part 2 – The age of Heroes

00:41:32.031 : :05 – 00:41:32 – fr:Partie 2.1 – en:Part 2.1

00:50:18.640 : :06 – 00:50:18 – fr:Partie 2.2 – en:Part 2.2

00:58:42.644 : :07 – 00:58:42 – fr:Partie 2.3 – en:Part 2.3

01:08:35.694 : :08 – 01:08:35 – fr:Partie 3 – Mère Adorée, Fils Adoré – en:Part 3 – Beloved Mother, Beloved Son

01:20:27.823 : :09 – 01:20:27 – fr:Partie 3.1 – en:Part 3.1

01:30:05.316 : :10 – 01:30:05 – fr:Partie 3.2 – en:Part 3.2

01:40:28.605 : :11 – 01:40:28 – fr:Partie 3.3 – en:Part 3.3

01:51:24.177 : :12 – 01:51:24 – fr:Partie 4 – Le Métamorphoseur – en:Part 4 – Change Machine

01:59:06.931 : :13 – 01:59:06 – fr:Partie 4.1 – en:Part 4.1

02:07:56.293 : :14 – 02:07:56 – fr:Partie 4.2 – en:Part 4.2

02:21:48.334 : :15 – 02:21:48 – fr:Partie 5 – Avec les meilleurs volontés – en:part 5 – All the King’s Horses

02:29:39.930 : :16 – 02:29:39 – fr:Partie 5.1 – en:Part 5.1

02:37:17.095 : :17 – 02:37:17 – fr:Partie 5.2 – en:Part 5.2

02:48:26.180 : :18 – 02:48:26 – fr:Partie 5.3 – en:Part 5.3

02:53:09.504 : :19 – 02:53:09 – fr:Partie 6 – Autre chose de plus sombre – en:Part 6 – Something Darker

03:09:43.915 : :20 – 03:09:43 – fr:Partie 6.1 – en:Part 6.1

03:21:18.775 : :21 – 03:21:18 – fr:Partie 6.2 – en:Part 6.2

03:34:02.288 : :22 – 03:34:02 – fr:Épilogue – Un père puissance deux – en:Epilogue – A Father Twice Over

03:39:59.854 : :23 – 03:39:59 – fr:Épilogue 1 – en:Epilogue 1

03:50:37.282 : :24 – 03:50:37 – fr:Épilogue 2 – en:Epilogue 2

03:53:29.053 : :25 – 03:53:29 – fr:Générique – en:End Credits

Zack Snyder’s Justice League Download Torrent Magnet

#Zack #Snyders #Justice #League