Zack.Snyder’s.Justice.League. Full Torrent Magnet Download

Download Torrent Zack.Snyder’s.Justice.League. Movie Full in HD Result. Movie Zack.Snyder’s.Justice.League. Torrent Download full. Movie Zack.Snyder’s.Justice.League. torrent Magnet Download Full. Zack.Snyder’s.Justice.League. Full Movie Torrent Download And Magnet Download For your PC And Mobiles. Latest Movie Zack.Snyder’s.Justice.League. Download Link In Bottom.

Torrent And Magnet Links Below

DATI – TRAMA

Genere: Azione, Avventura

Anno: 2021

Regia: Zack Snyder

Attori: Henry Cavill, Ben Affleck, Gal Gadot, Jason Momoa, Ezra Miller, Ray Fisher, Jared Leto, Amber Heard, Robin Wright, Amy Adams, Connie Nielsen, Diane Lane, Ciarán Hinds, Joe Manganiello, Willem Dafoe, J.K. Simmons, Jesse Eisenberg, Jeremy Irons, Kiersey Clemons, Joe Morton, Harry J. Lennix, Peter Guinness

Paese: USA

Durata: 240 min

Sceneggiatura: Chris Terrio, Zack Snyder, Will Beall

Fotografia: Fabian Wagner

Montaggio: David Brenner, Dody Dorn

Musiche: Junkie XL

Produzione: Atlas Entertainment, DC Entertainment, DC Films, HBO Max, RatPac-Dune Entertainment, The Stone Quarry, Warner Bros. Pictures, Warner Bros., Warner Max

Zack Snyder’s Justice League, film diretto da Zack Snyder, racconta come, dopo la morte di Superman, Batman (Ben Affleck) e Wonder Woman (Gal Gadot) decidano di reclutare Flash (Ezra Miller), Aquaman (Jason Momoa) e Cyborg (Ray Fisher) per mettere su una squadra di supereroi in grado di proteggere il mondo dalla minaccia di Steppenwolf (Ciarán Hinds), a comando di diverse truppe di Parademoni.

I nemici vogliono impossessarsi delle tre Scatole Madri, che nelle mani sbagliate potrebbero causare danni di proporzioni catastrofiche. Mettere su una squadra, però, si rivela davvero difficile, perché prima di prendere parte alla battaglia contro Steppenwolf, ogni eroe dovrà prima affrontare i demoni del proprio passato.

IMMAGINI



REPORT

General

Unique ID : 243546634371212472067582406646614056047 (0xB739602741F7CBF832EA404DB86DDC6F)

Complete name : E:Zack.Snyder’s.Justice.League.Pt1.2021.iTA-ENG.Bluray.2160p.HDR.x265-CYBER.mkv

Format : Matroska

Format version : Version 4

File size : 25.4 GiB

Duration : 2 h 21 min

Overall bit rate : 25.6 Mb/s

Encoded date : UTC 2021-05-23 22:01:41

Writing application : mkvmerge v57.0.0 (‘Till The End’) 64-bit

Writing library : libebml v1.4.2 + libmatroska v1.6.4

Video

ID : 1

Format : HEVC

Format/Info : High Efficiency Video Coding

Format profile : Main [email protected]@Main

HDR format : SMPTE ST 2086, HDR10 compatible

Codec ID : V_MPEGH/ISO/HEVC

Duration : 2 h 21 min

Bit rate : 23.0 Mb/s

Width : 2 880 pixels

Height : 2 160 pixels

Display aspect ratio : 4:3

Frame rate mode : Constant

Frame rate : 23.976 (24000/1001) FPS

Color space : YUV

Chroma subsampling : 4:2:0

Bit depth : 10 bits

Bits/(Pixel*Frame) : 0.154

Stream size : 22.8 GiB (90%)

Title : 2160p UHDRip

Writing library : x265 3.4+33-5fa76b3fc:[Windows][*C|Y|B|E|R*][64 bit] 10bit

Encoding settings : cpuid=1111039 / frame-threads=6 / numa-pools=32 / wpp / no-pmode / no-pme / no-psnr / no-ssim / log-level=2 / input-csp=1 / input-res=2880×2160 / interlace=0 / total-frames=0 / level-idc=0 / high-tier=1 / uhd-bd=0 / ref=2 / no-allow-non-conformance / repeat-headers / annexb / no-aud / no-hrd / info / hash=0 / no-temporal-layers / no-open-gop / min-keyint=23 / keyint=250 / gop-lookahead=0 / bframes=4 / b-adapt=0 / b-pyramid / bframe-bias=0 / rc-lookahead=15 / lookahead-slices=8 / scenecut=40 / hist-scenecut=0 / radl=0 / no-splice / no-intra-refresh / ctu=64 / min-cu-size=8 / no-rect / no-amp / max-tu-size=32 / tu-inter-depth=1 / tu-intra-depth=1 / limit-tu=0 / rdoq-level=0 / dynamic-rd=0.00 / no-ssim-rd / signhide / no-tskip / nr-intra=0 / nr-inter=0 / no-constrained-intra / strong-intra-smoothing / max-merge=2 / limit-refs=3 / no-limit-modes / me=1 / subme=1 / merange=57 / temporal-mvp / no-frame-dup / no-hme / weightp / no-weightb / no-analyze-src-pics / deblock=0:0 / sao / no-sao-non-deblock / rd=2 / selective-sao=4 / early-skip / rskip / fast-intra / no-tskip-fast / no-cu-lossless / no-b-intra / no-splitrd-skip / rdpenalty=0 / psy-rd=2.00 / psy-rdoq=0.00 / no-rd-refine / no-lossless / cbqpoffs=0 / crqpoffs=0 / rc=crf / crf=15.0 / qcomp=0.60 / qpstep=4 / stats-write=0 / stats-read=0 / ipratio=1.40 / pbratio=1.30 / aq-mode=2 / aq-strength=1.00 / cutree / zone-count=0 / no-strict-cbr / qg-size=32 / no-rc-grain / qpmax=69 / qpmin=0 / no-const-vbv / sar=1 / overscan=0 / videoformat=5 / range=0 / colorprim=9 / transfer=16 / colormatrix=9 / chromaloc=0 / display-window=0 / master-display=G(13250,34500)B(7500,3000)R(34000,16000)WP(15635,16450)L(10000000,01) / cll=597,122 / min-luma=0 / max-luma=1023 / log2-max-poc-lsb=8 / vui-timing-info / vui-hrd-info / slices=1 / no-opt-qp-pps / no-opt-ref-list-length-pps / no-multi-pass-opt-rps / scenecut-bias=0.05 / hist-threshold=0.03 / no-opt-cu-delta-qp / no-aq-motion / hdr10 / no-hdr10-opt / no-dhdr10-opt / no-idr-recovery-sei / analysis-reuse-level=0 / analysis-save-reuse-level=0 / analysis-load-reuse-level=0 / scale-factor=0 / refine-intra=0 / refine-inter=0 / refine-mv=1 / refine-ctu-distortion=0 / no-limit-sao / ctu-info=0 / no-lowpass-dct / refine-analysis-type=0 / copy-pic=1 / max-ausize-factor=1.0 / no-dynamic-refine / no-single-sei / no-hevc-aq / no-svt / no-field / qp-adaptation-range=1.00 / no-scenecut-aware-qpconformance-window-offsets / right=0 / bottom=0 / decoder-max-rate=0 / no-vbv-live-multi-pass

Language : English

Default : Yes

Forced : No

Color range : Limited

Color primaries : BT.2020

Transfer characteristics : PQ

Matrix coefficients : BT.2020 non-constant

Mastering display color primaries : Display P3

Mastering display luminance : min: 0.0001 cd/m2, max: 1000 cd/m2

Maximum Content Light Level : 597 cd/m2

Maximum Frame-Average Light Level : 122 cd/m2

Audio #1

ID : 2

Format : DTS

Format/Info : Digital Theater Systems

Codec ID : A_DTS

Duration : 2 h 21 min

Bit rate mode : Constant

Bit rate : 1 509 kb/s

Channel(s) : 6 channels

Channel layout : C L R Ls Rs LFE

Sampling rate : 48.0 kHz

Frame rate : 93.750 FPS (512 SPF)

Bit depth : 24 bits

Compression mode : Lossy

Stream size : 1.50 GiB (6%)

Title : DTS

Language : Italian

Default : Yes

Forced : No

Audio #2

ID : 3

Format : AC-3

Format/Info : Audio Coding 3

Commercial name : Dolby Digital

Codec ID : A_AC3

Duration : 2 h 21 min

Bit rate mode : Constant

Bit rate : 640 kb/s

Channel(s) : 6 channels

Channel layout : L R C LFE Ls Rs

Sampling rate : 48.0 kHz

Frame rate : 31.250 FPS (1536 SPF)

Compression mode : Lossy

Stream size : 650 MiB (3%)

Title : AC3

Language : Italian

Service kind : Complete Main

Default : No

Forced : No

Audio #3

ID : 4

Format : AC-3

Format/Info : Audio Coding 3

Commercial name : Dolby Digital

Format settings : Dolby Surround EX

Codec ID : A_AC3

Duration : 2 h 21 min

Bit rate mode : Constant

Bit rate : 448 kb/s

Channel(s) : 6 channels

Channel layout : L R C LFE Ls Rs

Sampling rate : 48.0 kHz

Frame rate : 31.250 FPS (1536 SPF)

Compression mode : Lossy

Stream size : 455 MiB (2%)

Title : AC3

Language : English

Service kind : Complete Main

Default : No

Forced : No

Text #1

ID : 5

Format : UTF-8

Codec ID : S_TEXT/UTF8

Codec ID/Info : UTF-8 Plain Text

Duration : 2 h 12 min

Bit rate : 0 b/s

Count of elements : 21

Stream size : 700 Bytes (0%)

Title : Forced

Language : Italian

Default : No

Forced : Yes

Text #2

ID : 6

Format : UTF-8

Codec ID : S_TEXT/UTF8

Codec ID/Info : UTF-8 Plain Text

Duration : 2 h 20 min

Bit rate : 42 b/s

Count of elements : 1637

Stream size : 43.7 KiB (0%)

Title : Non Udenti

Language : Italian

Default : No

Forced : No

Text #3

ID : 7

Format : UTF-8

Codec ID : S_TEXT/UTF8

Codec ID/Info : UTF-8 Plain Text

Duration : 2 h 20 min

Bit rate : 43 b/s

Count of elements : 1690

Stream size : 44.8 KiB (0%)

Title : Non Udenti

Language : English

Default : No

Forced : No

Menu

00:00:00.000 : :Capitolo 01

00:08:55.034 : :Capitolo 02

00:19:56.737 : :Capitolo 03

00:36:54.712 : :Capitolo 04

00:41:32.031 : :Capitolo 05

00:50:18.641 : :Capitolo 06

00:58:42.644 : :Capitolo 07

01:08:35.695 : :Capitolo 08

01:20:27.823 : :Capitolo 09

01:30:05.317 : :Capitolo 10

01:40:28.606 : :Capitolo 11

01:51:24.177 : :Capitolo 12

01:59:06.931 : :Capitolo 13

02:07:56.294 : :Capitolo 14

General

Unique ID : 16945897529454773909806963112076167639 (0xCBFA94109B33CFBE0DE690A8F58C9D7)

Complete name : E:Zack.Snyder’s.Justice.League.Pt2.2021.iTA-ENG.Bluray.2160p.HDR.x265-CYBER.mkv

Format : Matroska

Format version : Version 4

File size : 16.5 GiB

Duration : 1 h 40 min

Overall bit rate : 23.5 Mb/s

Encoded date : UTC 2021-05-23 22:02:53

Writing application : mkvmerge v57.0.0 (‘Till The End’) 64-bit

Writing library : libebml v1.4.2 + libmatroska v1.6.4

Video

ID : 1

Format : HEVC

Format/Info : High Efficiency Video Coding

Format profile : Main [email protected]@Main

HDR format : SMPTE ST 2086, HDR10 compatible

Codec ID : V_MPEGH/ISO/HEVC

Duration : 1 h 40 min

Bit rate : 20.9 Mb/s

Width : 2 880 pixels

Height : 2 160 pixels

Display aspect ratio : 4:3

Frame rate mode : Constant

Frame rate : 23.976 (24000/1001) FPS

Color space : YUV

Chroma subsampling : 4:2:0

Bit depth : 10 bits

Bits/(Pixel*Frame) : 0.140

Stream size : 14.7 GiB (89%)

Title : 2160p UHDRip

Writing library : x265 3.4+33-5fa76b3fc:[Windows][*C|Y|B|E|R*][64 bit] 10bit

Encoding settings : cpuid=1111039 / frame-threads=6 / numa-pools=32 / wpp / no-pmode / no-pme / no-psnr / no-ssim / log-level=2 / input-csp=1 / input-res=2880×2160 / interlace=0 / total-frames=0 / level-idc=0 / high-tier=1 / uhd-bd=0 / ref=2 / no-allow-non-conformance / repeat-headers / annexb / no-aud / no-hrd / info / hash=0 / no-temporal-layers / no-open-gop / min-keyint=23 / keyint=250 / gop-lookahead=0 / bframes=4 / b-adapt=0 / b-pyramid / bframe-bias=0 / rc-lookahead=15 / lookahead-slices=8 / scenecut=40 / hist-scenecut=0 / radl=0 / no-splice / no-intra-refresh / ctu=64 / min-cu-size=8 / no-rect / no-amp / max-tu-size=32 / tu-inter-depth=1 / tu-intra-depth=1 / limit-tu=0 / rdoq-level=0 / dynamic-rd=0.00 / no-ssim-rd / signhide / no-tskip / nr-intra=0 / nr-inter=0 / no-constrained-intra / strong-intra-smoothing / max-merge=2 / limit-refs=3 / no-limit-modes / me=1 / subme=1 / merange=57 / temporal-mvp / no-frame-dup / no-hme / weightp / no-weightb / no-analyze-src-pics / deblock=0:0 / sao / no-sao-non-deblock / rd=2 / selective-sao=4 / early-skip / rskip / fast-intra / no-tskip-fast / no-cu-lossless / no-b-intra / no-splitrd-skip / rdpenalty=0 / psy-rd=2.00 / psy-rdoq=0.00 / no-rd-refine / no-lossless / cbqpoffs=0 / crqpoffs=0 / rc=crf / crf=15.0 / qcomp=0.60 / qpstep=4 / stats-write=0 / stats-read=0 / ipratio=1.40 / pbratio=1.30 / aq-mode=2 / aq-strength=1.00 / cutree / zone-count=0 / no-strict-cbr / qg-size=32 / no-rc-grain / qpmax=69 / qpmin=0 / no-const-vbv / sar=1 / overscan=0 / videoformat=5 / range=0 / colorprim=9 / transfer=16 / colormatrix=9 / chromaloc=0 / display-window=0 / master-display=G(13250,34500)B(7500,3000)R(34000,16000)WP(15635,16450)L(10000000,01) / cll=597,122 / min-luma=0 / max-luma=1023 / log2-max-poc-lsb=8 / vui-timing-info / vui-hrd-info / slices=1 / no-opt-qp-pps / no-opt-ref-list-length-pps / no-multi-pass-opt-rps / scenecut-bias=0.05 / hist-threshold=0.03 / no-opt-cu-delta-qp / no-aq-motion / hdr10 / no-hdr10-opt / no-dhdr10-opt / no-idr-recovery-sei / analysis-reuse-level=0 / analysis-save-reuse-level=0 / analysis-load-reuse-level=0 / scale-factor=0 / refine-intra=0 / refine-inter=0 / refine-mv=1 / refine-ctu-distortion=0 / no-limit-sao / ctu-info=0 / no-lowpass-dct / refine-analysis-type=0 / copy-pic=1 / max-ausize-factor=1.0 / no-dynamic-refine / no-single-sei / no-hevc-aq / no-svt / no-field / qp-adaptation-range=1.00 / no-scenecut-aware-qpconformance-window-offsets / right=0 / bottom=0 / decoder-max-rate=0 / no-vbv-live-multi-pass

Language : English

Default : Yes

Forced : No

Color range : Limited

Color primaries : BT.2020

Transfer characteristics : PQ

Matrix coefficients : BT.2020 non-constant

Mastering display color primaries : Display P3

Mastering display luminance : min: 0.0001 cd/m2, max: 1000 cd/m2

Maximum Content Light Level : 597 cd/m2

Maximum Frame-Average Light Level : 122 cd/m2

Audio #1

ID : 2

Format : DTS

Format/Info : Digital Theater Systems

Codec ID : A_DTS

Duration : 1 h 40 min

Bit rate mode : Constant

Bit rate : 1 509 kb/s

Channel(s) : 6 channels

Channel layout : C L R Ls Rs LFE

Sampling rate : 48.0 kHz

Frame rate : 93.750 FPS (512 SPF)

Bit depth : 24 bits

Compression mode : Lossy

Stream size : 1.06 GiB (6%)

Title : DTS

Language : Italian

Default : Yes

Forced : No

Audio #2

ID : 3

Format : AC-3

Format/Info : Audio Coding 3

Commercial name : Dolby Digital

Codec ID : A_AC3

Duration : 1 h 40 min

Bit rate mode : Constant

Bit rate : 640 kb/s

Channel(s) : 6 channels

Channel layout : L R C LFE Ls Rs

Sampling rate : 48.0 kHz

Frame rate : 31.250 FPS (1536 SPF)

Compression mode : Lossy

Stream size : 459 MiB (3%)

Title : AC3

Language : Italian

Service kind : Complete Main

Default : No

Forced : No

Audio #3

ID : 4

Format : AC-3

Format/Info : Audio Coding 3

Commercial name : Dolby Digital

Format settings : Dolby Surround EX

Codec ID : A_AC3

Duration : 1 h 40 min

Bit rate mode : Constant

Bit rate : 448 kb/s

Channel(s) : 6 channels

Channel layout : L R C LFE Ls Rs

Sampling rate : 48.0 kHz

Frame rate : 31.250 FPS (1536 SPF)

Compression mode : Lossy

Stream size : 321 MiB (2%)

Title : AC3

Language : English

Service kind : Complete Main

Default : No

Forced : No

Text #1

ID : 5

Format : UTF-8

Codec ID : S_TEXT/UTF8

Codec ID/Info : UTF-8 Plain Text

Duration : 1 h 31 min

Bit rate : 0 b/s

Count of elements : 14

Stream size : 410 Bytes (0%)

Title : Forced

Language : Italian

Default : No

Forced : Yes

Text #2

ID : 6

Format : UTF-8

Codec ID : S_TEXT/UTF8

Codec ID/Info : UTF-8 Plain Text

Duration : 1 h 31 min

Bit rate : 38 b/s

Count of elements : 1004

Stream size : 25.9 KiB (0%)

Title : Non Udenti

Language : Italian

Default : No

Forced : No

Text #3

ID : 7

Format : UTF-8

Codec ID : S_TEXT/UTF8

Codec ID/Info : UTF-8 Plain Text

Duration : 1 h 39 min

Bit rate : 38 b/s

Count of elements : 1089

Stream size : 28.0 KiB (0%)

Title : Non Udenti

Language : English

Default : No

Forced : No

Menu

00:00:00.000 : :Capitolo 01

00:07:51.596 : :Capitolo 02

00:15:28.761 : :Capitolo 03

00:26:37.846 : :Capitolo 04

00:31:21.171 : :Capitolo 05

00:47:55.581 : :Capitolo 06

00:59:30.442 : :Capitolo 07

01:12:13.955 : :Capitolo 08

01:18:11.520 : :Capitolo 09

01:28:48.949 : :Capitolo 10

GOOD DOWNLOAD

Zack.Snyder’s.Justice.League.Download Torrent Magnet

#ZackSnydersJusticeLeague