Zack Snyders Justice League [ Full Torrent Magnet Download

Download Torrent Zack Snyders Justice League [ Movie Full in HD Result. Movie Zack Snyders Justice League [ Torrent Download full. Movie Zack Snyders Justice League [ torrent Magnet Download Full. Zack Snyders Justice League [ Full Movie Torrent Download And Magnet Download For your PC And Mobiles. Latest Movie Zack Snyders Justice League [ Download Link In Bottom.

Torrent And Magnet Links Below

Zack Snyders Justice League [16:9] 2021 720p English AAC ESubs – Sungeorge

Quote:

Zack Snyders Justice League [16:9] 2021 720p English AAC ESubs – Sungeorge




Code:

General

Complete name : Zack Snyders Justice League 2021 720p English AAC ESubs.mkv

Format : Matroska

Format version : Version 4

File size : 3.29 GiB

Duration : 4 h 2 min

Overall bit rate : 1 945 kb/s

Movie name : MovieAIO.club

Encoded date : UTC 2021-03-21 16:16:29

Writing application : mkvmerge v55.0.0 (‘Waiting For Space’) 64-bit

Writing library : libebml v1.4.2 + libmatroska v1.6.4

Video

ID : 1

Format : AVC

Format/Info : Advanced Video Codec

Format profile : [email protected]
Format settings : CABAC / 1 Ref Frames

Format settings, CABAC : Yes

Format settings, Reference frames : 1 frame

Codec ID : V_MPEG4/ISO/AVC

Duration : 4 h 2 min

Bit rate : 1 782 kb/s

Width : 1 234 pixels

Height : 720 pixels

Display aspect ratio : 1.714

Frame rate mode : Constant

Frame rate : 23.976 (24000/1001) FPS

Color space : YUV

Chroma subsampling : 4:2:0

Bit depth : 8 bits

Scan type : Progressive

Bits/(Pixel*Frame) : 0.084

Stream size : 3.01 GiB (92%)

Title : MovieAIO.club

Default : Yes

Forced : No

Color range : Limited

Color primaries : BT.709

Transfer characteristics : BT.709

Matrix coefficients : BT.709

Audio

ID : 2

Format : AAC LC

Format/Info : Advanced Audio Codec Low Complexity

Codec ID : A_AAC-2

Duration : 4 h 2 min

Bit rate : 160 kb/s

Channel(s) : 2 channels

Channel layout : L R

Sampling rate : 44.1 kHz

Frame rate : 43.066 FPS (1024 SPF)

Compression mode : Lossy

Stream size : 278 MiB (8%)

Title : MovieAIO.club

Language : English

Default : Yes

Forced : No

Text

ID : 3

Format : UTF-8

Codec ID : S_TEXT/UTF8

Codec ID/Info : UTF-8 Plain Text

Duration : 4 h 0 min

Bit rate : 40 b/s

Count of elements : 2814

Stream size : 70.7 KiB (0%)

Title : English SDH

Language : English

Default : Yes

Forced : No

Zack Snyders Justice League [Download Torrent Magnet

#Zack #Snyders #Justice #League