Zack Snyders Justice League ( Full Torrent Magnet Download

Download Torrent Zack Snyders Justice League ( Movie Full in HD Result. Movie Zack Snyders Justice League ( Torrent Download full. Movie Zack Snyders Justice League ( torrent Magnet Download Full. Zack Snyders Justice League ( Full Movie Torrent Download And Magnet Download For your PC And Mobiles. Latest Movie Zack Snyders Justice League ( Download Link In Bottom.

Torrent And Magnet Links Below

www.imdb.com/title/tt12361974/

Director’s Cut: Fueled by his restored faith in humanity and inspired by Superman’s selfless act, Bruce Wayne enlists the help of his new-found ally, Diana Prince, to face an even greater enemy.

Source: CM (Amzn)

Format : MPEG-4

Format profile : Base Media / Version 2

Codec ID : mp42 (isom/iso2/avc1/mp41)

File size : 4.78 GiB

Duration : 4 h 2 min

Overall bit rate mode : Variable

Overall bit rate : 2 825 kb/s

Writing application : HandBrake 1.3.3 2020061300

Video

ID : 1

Format : AVC

Format/Info : Advanced Video Codec

Format profile : [email protected]
Format settings : 1 Ref Frames

Format settings, CABAC : No

Format settings, Reference : 1 frame

Codec ID : avc1

Codec ID/Info : Advanced Video Coding

Duration : 4 h 2 min

Bit rate : 2 334 kb/s

Width : 1 440 pixels

Height : 1 080 pixels

Display aspect ratio : 4:3

Frame rate mode : Variable

Frame rate : 23.976 (24000/1001) FPS

Minimum frame rate : 23.974 FPS

Maximum frame rate : 23.981 FPS

Color space : YUV

Chroma subsampling : 4:2:0

Bit depth : 8 bits

Scan type : Progressive

Bits/(Pixel*Frame) : 0.063

Stream size : 3.95 GiB (83%)

Writing library : x264 core 157 r2935 545de2f

Color primaries : BT.709

Transfer characteristics : BT.709

Matrix coefficients : BT.709

Audio #1

ID : 2

Format : AC-3

Format/Info : Audio Coding 3

Commercial name : Dolby Digital

Codec ID : ac-3

Duration : 4 h 2 min

Bit rate mode : Constant

Bit rate : 320 kb/s

Channel(s) : 6 channels

Channel layout : L R C LFE Ls Rs

Sampling rate : 48.0 kHz

Frame rate : 31.250 FPS (1536 SPF)

Compression mode : Lossy

Stream size : 554 MiB (11%)

Title : English

Language : English

Service kind : Complete Main

Default : Yes

Audio #2

ID : 3

Format : AAC LC

Format/Info : Advanced Audio Codec Low Complexity

Codec ID : mp4a-40-2

Duration : 4 h 2 min

Bit rate mode : Constant

Bit rate : 160 kb/s

Channel(s) : 2 channels

Channel layout : L R

Sampling rate : 48.0 kHz

Frame rate : 46.875 FPS (1024 SPF)

Compression mode : Lossy

Stream size : 278 MiB (6%)

Title : English

Language : English

Text
Language : English

Default : Yes

Forced : No

Language : English

Language : Spanish

Language : French

Language : Italian

Language : Dutch

Default : No

Forced : No

Zack Snyders Justice League (Download Torrent Magnet

#Zack #Snyders #Justice #League