Zack.Snyder’s.Justice.League. Full Torrent Magnet Download

Download Torrent Zack.Snyder’s.Justice.League. Movie Full in HD Result. Movie Zack.Snyder’s.Justice.League. Torrent Download full. Movie Zack.Snyder’s.Justice.League. torrent Magnet Download Full. Zack.Snyder’s.Justice.League. Full Movie Torrent Download And Magnet Download For your PC And Mobiles. Latest Movie Zack.Snyder’s.Justice.League. Download Link In Bottom.

Torrent And Magnet Links Below

DATI – TRAMA

Genere: Azione, Avventura

Anno: 2021

Regia: Zack Snyder

Attori: Henry Cavill, Ben Affleck, Gal Gadot, Jason Momoa, Ezra Miller, Ray Fisher, Jared Leto, Amber Heard, Robin Wright, Amy Adams, Connie Nielsen, Diane Lane, Ciarán Hinds, Joe Manganiello, Willem Dafoe, J.K. Simmons, Jesse Eisenberg, Jeremy Irons, Kiersey Clemons, Joe Morton, Harry J. Lennix, Peter Guinness

Paese: USA

Durata: 240 min

Sceneggiatura: Chris Terrio, Zack Snyder, Will Beall

Fotografia: Fabian Wagner

Montaggio: David Brenner, Dody Dorn

Musiche: Junkie XL

Produzione: Atlas Entertainment, DC Entertainment, DC Films, HBO Max, RatPac-Dune Entertainment, The Stone Quarry, Warner Bros. Pictures, Warner Bros., Warner Max

Zack Snyder’s Justice League, film diretto da Zack Snyder, racconta come, dopo la morte di Superman, Batman (Ben Affleck) e Wonder Woman (Gal Gadot) decidano di reclutare Flash (Ezra Miller), Aquaman (Jason Momoa) e Cyborg (Ray Fisher) per mettere su una squadra di supereroi in grado di proteggere il mondo dalla minaccia di Steppenwolf (Ciarán Hinds), a comando di diverse truppe di Parademoni.

I nemici vogliono impossessarsi delle tre Scatole Madri, che nelle mani sbagliate potrebbero causare danni di proporzioni catastrofiche. Mettere su una squadra, però, si rivela davvero difficile, perché prima di prendere parte alla battaglia contro Steppenwolf, ogni eroe dovrà prima affrontare i demoni del proprio passato.

IMMAGINI



REPORT

General

Unique ID : 83422596287593220612112849020606719724 (0x3EC29B8D2C4F4AEDB55A07E0A013A6EC)

Complete name : D:Zack.Snyder’s.Justice.League.2021.iTA-ENG.HMAX.WEBDL.2160p.x265-CYBER.mkv

Format : Matroska

Format version : Version 4

File size : 34.8 GiB

Duration : 4 h 2 min

Overall bit rate : 20.6 Mb/s

Encoded date : UTC 2021-03-18 10:56:22

Writing application : mkvmerge v49.0.0 (‘Sick Of Losing Soulmates’) 64-bit

Writing library : libebml v1.4.0 + libmatroska v1.6.1

Video

ID : 1

Format : HEVC

Format/Info : High Efficiency Video Coding

Format profile : Main [email protected]@Main

HDR format : SMPTE ST 2086, HDR10 compatible

Codec ID : V_MPEGH/ISO/HEVC

Duration : 4 h 2 min

Bit rate : 17.9 Mb/s

Width : 3 840 pixels

Height : 2 160 pixels

Display aspect ratio : 16:9

Frame rate mode : Constant

Frame rate : 23.976 (24000/1001) FPS

Color space : YUV

Chroma subsampling : 4:2:0

Bit depth : 10 bits

Bits/(Pixel*Frame) : 0.090

Stream size : 30.2 GiB (87%)

Writing library : x265 3.4hy:[Linux][GCC 7.5.0][64 bit] 10bit

Encoding settings : cpuid=1111039 / frame-threads=1 / wpp / no-pmode / no-pme / no-psnr / no-ssim / log-level=2 / input-csp=1 / input-res=3840×2160 / interlace=0 / total-frames=0 / level-idc=0 / high-tier=1 / uhd-bd=0 / ref=4 / no-allow-non-conformance / repeat-headers / annexb / no-aud / no-hrd / info / hash=0 / no-temporal-layers / no-open-gop / min-keyint=96 / keyint=96 / gop-lookahead=0 / bframes=3 / b-adapt=2 / b-pyramid / bframe-bias=0 / rc-lookahead=25 / lookahead-slices=4 / scenecut=40 / hist-scenecut=0 / radl=0 / no-splice / no-intra-refresh / ctu=64 / min-cu-size=8 / rect / no-amp / max-tu-size=32 / tu-inter-depth=1 / tu-intra-depth=1 / limit-tu=0 / rdoq-level=2 / dynamic-rd=0.00 / no-ssim-rd / signhide / no-tskip / nr-intra=0 / nr-inter=0 / no-constrained-intra / strong-intra-smoothing / max-merge=3 / limit-refs=3 / limit-modes / me=3 / subme=3 / merange=57 / temporal-mvp / no-frame-dup / no-hme / weightp / no-weightb / no-analyze-src-pics / deblock=0:0 / sao / no-sao-non-deblock / rd=4 / selective-sao=4 / no-early-skip / rskip / no-fast-intra / no-tskip-fast / no-cu-lossless / no-b-intra / no-splitrd-skip / rdpenalty=0 / psy-rd=2.00 / psy-rdoq=1.00 / no-rd-refine / no-lossless / cbqpoffs=0 / crqpoffs=0 / rc=abr / bitrate=18000 / qcomp=0.60 / qpstep=4 / stats-write=0 / stats-read=2 / cplxblur=20.0 / qblur=0.5 / vbv-maxrate=24500 / vbv-bufsize=24500 / vbv-init=0.6 / vbv-end=0.6 / vbv-end-fr-adj=0.0 / ipratio=1.40 / pbratio=1.30 / aq-mode=2 / aq-strength=1.00 / cutree / zone-count=0 / no-strict-cbr / qg-size=32 / no-rc-grain / qpmax=69 / qpmin=0 / no-const-vbv / sar=0 / overscan=0 / videoformat=5 / range=0 / colorprim=9 / transfer=16 / colormatrix=9 / chromaloc=0 / display-window=0 / master-display=G(13250,34500)B(7500,3000)R(34000,16000)WP(15635,16450)L(10000000,1) / cll=597,122 / min-luma=0 / max-luma=1023 / log2-max-poc-lsb=8 / vui-timing-info / vui-hrd-info / no-concatenation / slices=1 / no-opt-qp-pps / no-opt-ref-list-length-pps / no-multi-pass-opt-rps / scenecut-bias=0.05 / hist-threshold=0.01 / no-opt-cu-delta-qp / no-aq-motion / hdr10 / no-hdr10-opt / no-dhdr10-opt / no-idr-recovery-sei / analysis-reuse-level=0 / analysis-save-reuse-level=0 / analysis-load-reuse-level=0 / scale-factor=0 / refine-intra=0 / refine-inter=0 / refine-mv=1 / refine-ctu-distortion=0 / no-limit-sao / ctu-info=0 / no-lowpass-dct / refine-analysis-type=0 / copy-pic=1 / max-ausize-factor=1.0 / no-dynamic-refine / no-single-sei / no-hevc-aq / no-svt / no-field / qp-adaptation-range=1.00 / no-scenecut-aware-qpconformance-window-offsets / right=0 / bottom=0 / decoder-max-rate=0

Default : Yes

Forced : No

Color range : Limited

Color primaries : BT.2020

Transfer characteristics : PQ

Matrix coefficients : BT.2020 non-constant

Mastering display color primaries : Display P3

Mastering display luminance : min: 0.0001 cd/m2, max: 1000 cd/m2

Maximum Content Light Level : 597 cd/m2

Maximum Frame-Average Light Level : 122 cd/m2

Audio #1

ID : 2

Format : E-AC-3

Format/Info : Enhanced AC-3

Commercial name : Dolby Digital Plus

Codec ID : A_EAC3

Duration : 4 h 2 min

Bit rate mode : Constant

Bit rate : 640 kb/s

Channel(s) : 6 channels

Channel layout : L R C LFE Ls Rs

Sampling rate : 48.0 kHz

Frame rate : 31.250 FPS (1536 SPF)

Compression mode : Lossy

Stream size : 1.08 GiB (3%)

Title : E-AC3 iTA

Language : Italian

Service kind : Complete Main

Default : No

Forced : No

Audio #2

ID : 3

Format : AC-3

Format/Info : Audio Coding 3

Commercial name : Dolby Digital

Codec ID : A_AC3

Duration : 4 h 2 min

Bit rate mode : Constant

Bit rate : 640 kb/s

Channel(s) : 6 channels

Channel layout : L R C LFE Ls Rs

Sampling rate : 48.0 kHz

Frame rate : 31.250 FPS (1536 SPF)

Compression mode : Lossy

Stream size : 1.08 GiB (3%)

Title : AC3 iTA

Language : Italian

Service kind : Complete Main

Default : Yes

Forced : No

Audio #3

ID : 4

Format : E-AC-3 JOC

Format/Info : Enhanced AC-3 with Joint Object Coding

Commercial name : Dolby Digital Plus with Dolby Atmos

Codec ID : A_EAC3

Duration : 4 h 2 min

Bit rate mode : Constant

Bit rate : 768 kb/s

Channel(s) : 6 channels

Channel layout : L R C LFE Ls Rs

Sampling rate : 48.0 kHz

Frame rate : 31.250 FPS (1536 SPF)

Compression mode : Lossy

Stream size : 1.30 GiB (4%)

Title : English

Language : English

Service kind : Complete Main

Default : No

Forced : No

Complexity index : 16

Number of dynamic objects : 15

Bed channel count : 1 channel

Bed channel configuration : LFE

Audio #4

ID : 5

Format : AC-3

Format/Info : Audio Coding 3

Commercial name : Dolby Digital

Codec ID : A_AC3

Duration : 4 h 2 min

Bit rate mode : Constant

Bit rate : 640 kb/s

Channel(s) : 6 channels

Channel layout : L R C LFE Ls Rs

Sampling rate : 48.0 kHz

Frame rate : 31.250 FPS (1536 SPF)

Compression mode : Lossy

Stream size : 1.08 GiB (3%)

Title : AC3 ENG

Language : English

Service kind : Complete Main

Default : No

Forced : No

Text #1

ID : 6

Format : UTF-8

Codec ID : S_TEXT/UTF8

Codec ID/Info : UTF-8 Plain Text

Duration : 3 h 44 min

Bit rate : 0 b/s

Count of elements : 38

Stream size : 1.12 KiB (0%)

Title : FORCED iTA

Language : Italian

Default : No

Forced : Yes

Text #2

ID : 7

Format : UTF-8

Codec ID : S_TEXT/UTF8

Codec ID/Info : UTF-8 Plain Text

Duration : 3 h 55 min

Bit rate : 29 b/s

Count of elements : 1696

Stream size : 50.3 KiB (0%)

Title : REGUALR iTA

Language : Italian

Default : No

Forced : No

Text #3

ID : 8

Format : UTF-8

Codec ID : S_TEXT/UTF8

Codec ID/Info : UTF-8 Plain Text

Duration : 4 h 0 min

Bit rate : 40 b/s

Count of elements : 2799

Stream size : 71.5 KiB (0%)

Title : English [SDH]
Language : English

Default : No

Forced : No

Text #4

ID : 9

Format : UTF-8

Codec ID : S_TEXT/UTF8

Codec ID/Info : UTF-8 Plain Text

Duration : 3 h 56 min

Bit rate : 30 b/s

Count of elements : 2070

Stream size : 53.3 KiB (0%)

Title : English

Language : English

Default : No

Forced : No

GOOD DOWNLOAD

Zack.Snyder’s.Justice.League.Download Torrent Magnet

#ZackSnydersJusticeLeague