Zack Snyder’s Justice League Full Torrent Magnet Download

Download Torrent Zack Snyder’s Justice League Movie Full in HD Result. Movie Zack Snyder’s Justice League Torrent Download full. Movie Zack Snyder’s Justice League torrent Magnet Download Full. Zack Snyder’s Justice League Full Movie Torrent Download And Magnet Download For your PC And Mobiles. Latest Movie Zack Snyder’s Justice League Download Link In Bottom.

Torrent And Magnet Links Below

Zack Snyder’s Justice League (2021) 1080p h264 Ac3 5.1 Ita Eng Sub Ita Eng-MIRCrew


NO FOUND ONLY ORIGINAL RELEASE

My release is always in double track audio italian and Original audio

for select it use VLC or dvd player home

not use wmp

Zack Snyders Justice League (2021)

Quality MIRCrew on HD 1080p 5,9 gb

 

TITOLO:Zack Snyder’s Justice League

REGIA: Zack Snyder

ANNO: 2021

PAESE: USA

DURATA:4h2m

Henry Cavill, Ben Affleck, Gal Gadot

Dopo la morte di Kal-El per mano di Doomsday in Batman V Superman (2016), Bruce Wayne decide di riunire una squadra di individui dotati di straordinarie abilità. Con l’aiuto di Diana Prince/Wonder Woman, il crociato di Gotham City si prepara per l’arrivo di Steppenwolf, servitore del principe guerriero del pianeta Apokolips Darkseid.

Zack Snyder’s definitive director’s cut of Justice League. Determined to ensure Superman’s ultimate sacrifice was not in vain, Bruce Wayne aligns forces with Diana Prince with plans to recruit a team of metahumans to protect the world from an approaching threat of catastrophic proportions.

 

[spoiler]General

Complete name                            : Zack Snyders Justice League (2021) 1080p h264 Ac3 5.1 Ita Eng Sub Ita Eng-MIRCrewZack Snyders Justice League (2021) 1080p h264 Ac3 5.1 Ita Eng Sub Ita Eng-MIRCrew.mkv

Format                                   : Matroska

Format version                           : Version 2

File size                                : 5.90 GiB

Duration                                 : 4h 2mn

Overall bit rate                         : 3 489 Kbps

Movie name                               : MIRCrew

Encoded date                             : UTC 2021-03-19 17:46:45

Writing application                      : Lavf54.63.100

Writing library                          : Lavf54.63.100

COMMENT                                  : MIRCrew

Video

ID                                       : 1

Format                                   : AVC

Format/Info                              : Advanced Video Codec

Format profile                           : [email protected]
Format settings, CABAC                   : Yes

Format settings, ReFrames                : 2 frames

Codec ID                                 : V_MPEG4/ISO/AVC

Duration                                 : 4h 2mn

Bit rate                                 : 2 600 Kbps

Width                                    : 1 440 pixels

Height                                   : 1 080 pixels

Display aspect ratio                     : 4:3

Frame rate mode                          : Variable

Frame rate                               : 23.976 fps

Color space                              : YUV

Chroma subsampling                       : 4:2:0

Bit depth                                : 8 bits

Scan type                                : Progressive

Bits/(Pixel*Frame)                       : 0.070

Stream size                              : 4.27 GiB (72%)

Writing library                          : x264 core 130 r2273

Encoding settings                        : cabac=1 / ref=2 / deblock=1:-1:-1 / analyse=0x1:0x131 / me=hex / subme=7 / psy=1 / psy_rd=1.00:0.10 / mixed_ref=0 / me_range=16 / chroma_me=1 / trellis=1 / 8x8dct=0 / cqm=0 / deadzone=21,11 / fast_pskip=1 / chroma_qp_offset=-3 / threads=9 / lookahead_threads=1 / sliced_threads=0 / nr=0 / decimate=1 / interlaced=0 / bluray_compat=0 / constrained_intra=0 / bframes=3 / b_pyramid=0 / b_adapt=1 / b_bias=0 / direct=3 / weightb=1 / open_gop=0 / weightp=2 / keyint=230 / keyint_min=23 / scenecut=40 / intra_refresh=0 / rc_lookahead=40 / rc=abr / mbtree=1 / bitrate=2600 / ratetol=1.0 / qcomp=0.60 / qpmin=10 / qpmax=69 / qpstep=4 / vbv_maxrate=24000 / vbv_bufsize=24000 / nal_hrd=none / ip_ratio=1.40 / aq=1:1.00

Language                                 : Italian

Default                                  : Yes

Forced                                   : No

DURATION                                 : 04:02:03.134000000

NUMBER_OF_FRAMES                         : 348207

NUMBER_OF_BYTES                          : 16256002463

_STATISTICS_WRITING_APP                  : mkvmerge v52.0.0 (‘Secret For The Mad’) 64-bit

_STATISTICS_WRITING_DATE_UTC             : 2021-03-18 14:51:01

_STATISTICS_TAGS                         : BPS DURATION NUMBER_OF_FRAMES NUMBER_OF_BYTES

Audio #1

ID                                       : 2

Format                                   : AC-3

Format/Info                              : Audio Coding 3

Mode extension                           : CM (complete main)

Codec ID                                 : A_AC3

Duration                                 : 4h 2mn

Bit rate mode                            : Constant

Bit rate                                 : 448 Kbps

Channel(s)                               : 6 channels

Channel positions                        : Front: L C R, Side: L R, LFE

Sampling rate                            : 48.0 KHz

Bit depth                                : 16 bits

Compression mode                         : Lossy

Delay relative to video                  : 1mn 5s

Stream size                              : 776 MiB (13%)

Title                                    : ITA

Language                                 : Italian

Default                                  : Yes

Forced                                   : No

DURATION                                 : 04:02:03.200000000

NUMBER_OF_FRAMES                         : 453850

NUMBER_OF_BYTES                          : 1161856000

_STATISTICS_WRITING_APP                  : mkvmerge v52.0.0 (‘Secret For The Mad’) 64-bit

_STATISTICS_WRITING_DATE_UTC             : 2021-03-18 14:51:01

_STATISTICS_TAGS                         : BPS DURATION NUMBER_OF_FRAMES NUMBER_OF_BYTES

Audio #2

ID                                       : 3

Format                                   : AC-3

Format/Info                              : Audio Coding 3

Mode extension                           : CM (complete main)

Codec ID                                 : A_AC3

Duration                                 : 4h 2mn

Bit rate mode                            : Constant

Bit rate                                 : 448 Kbps

Channel(s)                               : 6 channels

Channel positions                        : Front: L C R, Side: L R, LFE

Sampling rate                            : 48.0 KHz

Bit depth                                : 16 bits

Compression mode                         : Lossy

Delay relative to video                  : 1mn 5s

Stream size                              : 776 MiB (13%)

Title                                    : ENG

Language                                 : English

Default                                  : No

Forced                                   : No

DURATION                                 : 04:02:03.168000000

NUMBER_OF_FRAMES                         : 453849

NUMBER_OF_BYTES                          : 1161853440

_STATISTICS_WRITING_APP                  : mkvmerge v52.0.0 (‘Secret For The Mad’) 64-bit

_STATISTICS_WRITING_DATE_UTC             : 2021-03-18 14:51:01

_STATISTICS_TAGS                         : BPS DURATION NUMBER_OF_FRAMES NUMBER_OF_BYTES

[/spolier]

Zack Snyder’s Justice League Download Torrent Magnet

#Zack #Snyders #Justice #League