Zack Snyders Justice League 2 Full Torrent Magnet Download

Download Torrent Zack Snyders Justice League 2 Movie Full in HD Result. Movie Zack Snyders Justice League 2 Torrent Download full. Movie Zack Snyders Justice League 2 torrent Magnet Download Full. Zack Snyders Justice League 2 Full Movie Torrent Download And Magnet Download For your PC And Mobiles. Latest Movie Zack Snyders Justice League 2 Download Link In Bottom.

Torrent And Magnet Links Below

Greets

Admin , Moderator , Noir, Ex0duS5150, theeshiznit, MisterQ, UserHEVC, miok, Silmarillion, Mr. Blue, MaDHeX and many more ;

Zack Snyders Justice League 2021 x264 720p WebHD Esub THE GOPI SAHI

Format : Matroska

Format version : Version 4

File size : 1.69 GiB

Duration : 4 h 2 min

Overall bit rate : 997 kb/s

Movie name : Zack Snyders Justice League 2021 GOPI SAHI

Encoded date : UTC 2021-03-20 02:21:18

Video

ID : 1

Format : AVC

Format/Info : Advanced Video Codec

Format profile : [email protected]
Format settings : CABAC / 5 Ref Frames

Format settings, CABAC : Yes

Format settings, Reference fra : 5 frames

Codec ID : V_MPEG4/ISO/AVC

Duration : 4 h 2 min

Bit rate : 899 kb/s

Width : 1 280 pixels

Height : 720 pixels

Display aspect ratio : 16:9

Frame rate mode : Constant

Frame rate : 23.976 (24000/1001) FPS

Color space : YUV

Chroma subsampling : 4:2:0

Bit depth : 8 bits

Scan type : Progressive

Bits/(Pixel*Frame) : 0.041

Stream size : 1.52 GiB (90%)

Title : GOPI SAHI

Writing library : x264
Language : English

Default : Yes

Forced : No

Color range : Limited

Color primaries : BT.709

Transfer characteristics : BT.709

Matrix coefficients : BT.709

Audio

ID : 2

Format : AAC LC

Format/Info : Advanced Audio Codec Low Complexity

Codec ID : A_AAC-2

Duration : 4 h 2 min

Bit rate : 96.0 kb/s

Channel(s) : 2 channels

Channel layout : L R

Sampling rate : 48.0 kHz

Frame rate : 46.875 FPS (1024 SPF)

Compression mode : Lossy

Delay relative to video : -21 ms

Stream size : 167 MiB (10%)

Language : English

Text

Language : English

Zack Snyders Justice League 2Download Torrent Magnet

#Zack #Snyders #Justice #League