Zack.Snyders.Justice.League.2 Full Torrent Magnet Download

Download Torrent Zack.Snyders.Justice.League.2 Movie Full in HD Result. Movie Zack.Snyders.Justice.League.2 Torrent Download full. Movie Zack.Snyders.Justice.League.2 torrent Magnet Download Full. Zack.Snyders.Justice.League.2 Full Movie Torrent Download And Magnet Download For your PC And Mobiles. Latest Movie Zack.Snyders.Justice.League.2 Download Link In Bottom.

Torrent And Magnet Links Below

Quote:

*****************************************************************

*******************SCREENSHOTS(Click to enlarge)*******************

*******************************MEDIAINFO****************************

Zack.Snyders.Justice.League.2021.720p.HMAX.WEBRip.DDP5.1.x264.LLG.mp4

Format : MPEG-4

Format profile : Base Media

Codec ID : isom (isom/iso2/avc1/mp41)

File size : 4.11 GiB

Duration : 4 h 2 min

Overall bit rate mode : Variable

Overall bit rate : 2 428 kb/s

Video

ID : 1

Format : AVC

Format/Info : Advanced Video Codec

Format profile : [email protected]
Format settings : CABAC / 1 Ref Frames

Format settings, CABAC : Yes

Format settings, Reference frames : 1 frame

Codec ID : avc1

Codec ID/Info : Advanced Video Coding

Duration : 4 h 2 min

Bit rate mode : Variable

Bit rate : 1 976 kb/s

Maximum bit rate : 2 000 kb/s

Width : 1 280 pixels

Height : 720 pixels

Display aspect ratio : 16:9

Frame rate mode : Constant

Frame rate : 23.976 (23976/1000) FPS

Color space : YUV

Chroma subsampling : 4:2:0

Bit depth : 8 bits

Scan type : Progressive

Bits/(Pixel*Frame) : 0.089

Stream size : 3.34 GiB (81%)

Audio

ID : 2

Format : E-AC-3

Format/Info : Enhanced AC-3

Commercial name : Dolby Digital Plus

Codec ID : ec-3

Duration : 4 h 2 min

Bit rate mode : Constant

Bit rate : 448 kb/s

Channel(s) : 6 channels

Channel layout : L R C LFE Ls Rs

Sampling rate : 48.0 kHz

Frame rate : 31.250 FPS (1536 SPF)

Compression mode : Lossy

Stream size : 776 MiB (18%)

Language : English

Service kind : Complete Main

Default : Yes

Alternate group : 1

********************************************************

Zack.Snyders.Justice.League.2Download Torrent Magnet

#ZackSnydersJusticeLeague2