Zack.Snyders.Justice.League.2 Full Torrent Magnet Download

Download Torrent Zack.Snyders.Justice.League.2 Movie Full in HD Result. Movie Zack.Snyders.Justice.League.2 Torrent Download full. Movie Zack.Snyders.Justice.League.2 torrent Magnet Download Full. Zack.Snyders.Justice.League.2 Full Movie Torrent Download And Magnet Download For your PC And Mobiles. Latest Movie Zack.Snyders.Justice.League.2 Download Link In Bottom.

Torrent And Magnet Links Below

Zack.Snyders.Justice.League.2021.HDRip.XviD.B4ND1T69

Director: Zack Snyder

Writers: Chris Terrio (screenplay by), Zack Snyder (story by)

Stars: Henry Cavill, Ben Affleck, Gal Gadot

Plot/Story:

Zack Snyder’s definitive director’s cut of Justice League. Determined to ensure Superman’s ultimate sacrifice was not in vain, Bruce Wayne aligns forces with Diana Prince with plans to recruit a team of metahumans to protect the world from an approaching threat of catastrophic proportions.

General

Complete name : Zack.Snyders.Justice.League.2021.HDRip.XviD.B4ND1T69.avi

Format : AVI

Format/Info : Audio Video Interleave

File size : 1.86 GiB

Duration : 4 h 2 min

Overall bit rate : 1 101 kb/s

Subtitles : Yes…Hardcoded for non-English parts + file included(HI)

Video

ID : 0

Format : MPEG-4 Visual

Format profile : Advanced [email protected]
Format settings, BVOP : 2

Format settings, QPel : No

Format settings, GMC : No warppoints

Format settings, Matrix : Default (H.263)

Codec ID : DIVX

Codec ID/Info : Project Mayo

Codec ID/Hint : DivX 4

Duration : 4 h 2 min

Bit rate : 960 kb/s

Width : 688 pixels

Height : 384 pixels

Display aspect ratio : 16:9

Frame rate : 23.976 (24000/1001) FPS

Color space : YUV

Chroma subsampling : 4:2:0

Bit depth : 8 bits

Scan type : Progressive

Compression mode : Lossy

Bits/(Pixel*Frame) : 0.152

Stream size : 1.62 GiB (87%)

Writing library : XviD 64

Audio

ID : 1

Format : MPEG Audio

Format version : Version 1

Format profile : Layer 3

Codec ID : 55

Codec ID/Hint : MP3

Duration : 4 h 2 min

Bit rate mode : Constant

Bit rate : 128 kb/s

Channel(s) : 2 channels

Sampling rate : 48.0 kHz

Compression mode : Lossy

Stream size : 222 MiB (12%)

Alignment : Aligned on interleaves

Interleave, duration : 24 ms (0.58 video frame)

Screenshots:











Please Seed For As Long As Possible

Or At Least 1:1 Ratio…Thanks

Enjoy Peeps

Zack.Snyders.Justice.League.2Download Torrent Magnet

#ZackSnydersJusticeLeague2