Zack.Snyders.Justice.League.2 Full Torrent Magnet Download

Download Torrent Zack.Snyders.Justice.League.2 Movie Full in HD Result. Movie Zack.Snyders.Justice.League.2 Torrent Download full. Movie Zack.Snyders.Justice.League.2 torrent Magnet Download Full. Zack.Snyders.Justice.League.2 Full Movie Torrent Download And Magnet Download For your PC And Mobiles. Latest Movie Zack.Snyders.Justice.League.2 Download Link In Bottom.

Torrent And Magnet Links Below

Zack.Snyders.Justice.League.2021.REPACK.720p.WEB.H264-NAISU

Quote:

Torrent Uploaded & Shared By Angietorrents

Angie Torrents

https://www.imdb.com/title/tt12361974/

Rating 8.9 / 102,337 people voted

Released 2021

Genre Action, Adventure, Fantasy, Sci-Fi

Plot Zack Snyders definitive directors cut of Justice League. Determined to ensure Supermans ultimate sacrifice was not in vain, Bruce Wayne…

Actors Ben Affleck, Henry Cavill, Gal Gadot, Diane Lane, Jared Leto, Ezra Miller, Jason Momoa, Connie Nielsen, J.K. Simmons, Robin Wright, Amy Adams, Karen Bryson, Kiersey Clemons, Jesse Eisenberg, Ray Fisher

NOTES: Repack due to wrong movie packed.

Format : Matroska

Format version : Version 4 / Version 2

File size : 7.05 GiB

Duration : 4 h 2 min

Overall bit rate mode : Variable

Overall bit rate : 4 166 kb/s

Writing application : mkvmerge v49.0.0 (‘Sick Of Losing Soulmates’) 64-bit

Writing library : libebml v1.4.0 + libmatroska v1.6.1

Video

ID : 1

Format : AVC

Format/Info : Advanced Video Codec

Format profile : [email protected]
Format settings : CABAC / 4 Ref Frames

Format settings, CABAC : Yes

Format settings, ReFrames : 4 frames

Codec ID : V_MPEG4/ISO/AVC

Duration : 4 h 2 min

Bit rate mode : Variable

Bit rate : 3 315 kb/s

Maximum bit rate : 5 100 kb/s

Width : 1 280 pixels

Height : 720 pixels

Display aspect ratio : 16:9

Frame rate mode : Constant

Frame rate : 23.976 (24000/1001) FPS

Color space : YUV

Chroma subsampling : 4:2:0

Bit depth : 8 bits

Scan type : Progressive

Bits/(Pixel*Frame) : 0.150

Stream size : 5.61 GiB (80%)

Default : Yes

Forced : No

Color range : Limited

Color primaries : BT.709

Transfer characteristics : BT.709

Matrix coefficients : BT.709

Audio

ID : 2

Format : E-AC-3

Format/Info : Enhanced Audio Coding 3

Format profile : E-AC-3+Atmos / E-AC-3

Codec ID : A_EAC3

Duration : 4 h 2 min

Bit rate mode : Constant

Bit rate : 768 kb/s

Channel(s) : 15 objects / 6 channels

Channel positions : 15 objects / Front: L C R, Side: L R, LFE

Sampling rate : 48.0 kHz

Frame rate : 187.500 FPS (256 SPF)

Compression mode : Lossy

Stream size : 1.30 GiB (18%)

Language : English

Service kind : Complete Main

Default : Yes

Forced : No

Text #1

ID : 3

Format : UTF-8

Codec ID : S_TEXT/UTF8

Codec ID/Info : UTF-8 Plain Text

Title : English

Language : English

Default : No

Forced : No

Text #2

ID : 4

Format : UTF-8

Codec ID : S_TEXT/UTF8

Codec ID/Info : UTF-8 Plain Text

Title : Latin America Spanish

Language : Spanish

Default : No

Forced : No

Zack.Snyders.Justice.League.2Download Torrent Magnet

#ZackSnydersJusticeLeague2