Zack.Snyders.Justice.League.2 Full Torrent Magnet Download

Download Torrent Zack.Snyders.Justice.League.2 Movie Full in HD Result. Movie Zack.Snyders.Justice.League.2 Torrent Download full. Movie Zack.Snyders.Justice.League.2 torrent Magnet Download Full. Zack.Snyders.Justice.League.2 Full Movie Torrent Download And Magnet Download For your PC And Mobiles. Latest Movie Zack.Snyders.Justice.League.2 Download Link In Bottom.

Torrent And Magnet Links Below

Zack.Snyders.Justice.League.2021.ITA.ENG.2160p.HMAX.WEB-DLx265.10bit.HDR.DDP5.1-MeM


Titolo Originale: Zack.Snyders.Justice.League

Anno: 2021

Regista: Zack Snyder

Genere: Azione, Avventura

Paese: USA

Durata: 240 min

Attori: Henry Cavill, Ben Affleck, Gal Gadot, Jason Momoa, Ezra Miller, Ray Fisher, Jared Leto,

Amber Heard, Robin Wright, Amy Adams, Connie Nielsen, Diane Lane, Ciarán Hinds, Joe Manganiello,
Willem Dafoe, J.K. Simmons, Jesse Eisenberg, Jeremy Irons, Kiersey Clemons, Joe Morton, Harry J. Lennix, Peter Guinness

Trama:
Zack Snyder’s Justice League, film diretto da Zack Snyder, racconta come, dopo la morte di Superman, Batman (Ben Affleck) e Wonder Woman (Gal Gadot) decidano di reclutare Flash (Ezra Miller), Aquaman (Jason Momoa) e Cyborg (Ray Fisher) per mettere su una squadra di supereroi in grado di proteggere il mondo dalla minaccia di Steppenwolf (Ciarán Hinds), a comando di diverse truppe di Parademoni.

I nemici vogliono impossessarsi delle tre Scatole Madri, che nelle mani sbagliate potrebbero causare danni di proporzioni catastrofiche. Mettere su una squadra, però, si rivela davvero difficile, perché prima di prendere parte alla battaglia contro Steppenwolf, ogni eroe dovrà prima affrontare i demoni del proprio passato.



Sorgente Video: WEB

Sorgente Audio: WEB

Risoluzione: 3840X2160 pixel

Audio 1: ITA EAC-3 6ch @640kb/s

Audio 2: ENG EAC-3 6ch @768 kb/s

Sottotitoli: ITA FULL, ITA FORCED, ENG FULL, MULTI

Code:


Complete name : /home/Amule Incoming/Zack.Snyders.Justice.League.2021.ITA.ENG.2160p.HMAX.WEB-DLx265.10bit.HDR.DDP5.1-MeM.mkv

Format : Matroska

Format version : Version 4 / Version 2

File size : 32.6 GiB

Duration : 4h 2mn

Overall bit rate : 19.3 Mbps

Encoded date : UTC 2021-03-18 14:52:25

Writing application : mkvmerge v7.6.0 (‘Garden of Dreams’) 64bit built on Feb 8 2015 15:12:28

Writing library : libebml v1.3.1 + libmatroska v1.4.2

_STATISTICS_WRITING_APP : mkvmerge v7.6.0 (‘Garden of Dreams’) 64bit built on Feb 8 2015 15:12:28

_STATISTICS_WRITING_DATE_UTC : 2021-03-18 14:52:25

_STATISTICS_TAGS : BPS DURATION NUMBER_OF_FRAMES NUMBER_OF_BYTES

DURATION : 03:44:25.285000000

NUMBER_OF_FRAMES : 37

NUMBER_OF_BYTES : 1143

Video

ID : 1

Format : V_MPEGH/ISO/HEVC

Codec ID : V_MPEGH/ISO/HEVC

Duration : 4h 2mn

Bit rate : 17.5 Mbps

Width : 3 840 pixels

Height : 2 160 pixels

Display aspect ratio : 16:9

Frame rate : 23.976 fps

Bits/(Pixel*Frame) : 0.088

Stream size : 29.6 GiB (91%)

Default : Yes

Forced : No

Audio #1

ID : 2

Format : E-AC-3

Format/Info : Audio Coding 3

Codec ID : A_EAC3

Duration : 4h 2mn

Bit rate mode : Constant

Bit rate : 640 Kbps

Channel(s) : 6 channels

Channel positions : Front: L C R, Side: L R, LFE

Sampling rate : 48.0 KHz

Compression mode : Lossy

Stream size : 1.08 GiB (3%)

Title : ITA

Language : Italian

Default : Yes

Forced : Yes

Audio #2

ID : 3

Format : E-AC-3

Format/Info : Audio Coding 3

Codec ID : A_EAC3

Duration : 4h 2mn

Bit rate mode : Constant

Bit rate : 768 Kbps

Channel(s) : 6 channels

Channel positions : Front: L C R, Side: L R, LFE

Sampling rate : 48.0 KHz

Compression mode : Lossy

Stream size : 1.30 GiB (4%)

Title : ENG

Language : English

Default : No

Forced : No

Text #1

ID : 4

Format : UTF-8

Codec ID : S_TEXT/UTF8

Codec ID/Info : UTF-8 Plain Text

Title : Forced

Language : Italian

Default : Yes

Forced : Yes

Text #2

ID : 5

Format : UTF-8

Codec ID : S_TEXT/UTF8

Codec ID/Info : UTF-8 Plain Text

Default : No

Forced : No

Text #3

ID : 6

Format : UTF-8

Codec ID : S_TEXT/UTF8

Codec ID/Info : UTF-8 Plain Text

Title : SDH

Language : English

Default : No

Forced : No


Zack.Snyders.Justice.League.2Download Torrent Magnet

#ZackSnydersJusticeLeague2