Zack.Snyder.S.Justice.League. Full Torrent Magnet Download

Download Torrent Zack.Snyder.S.Justice.League. Movie Full in HD Result. Movie Zack.Snyder.S.Justice.League. Torrent Download full. Movie Zack.Snyder.S.Justice.League. torrent Magnet Download Full. Zack.Snyder.S.Justice.League. Full Movie Torrent Download And Magnet Download For your PC And Mobiles. Latest Movie Zack.Snyder.S.Justice.League. Download Link In Bottom.

Torrent And Magnet Links Below


Zack Snyder’s Justice League


Genere: Azione, Avventura

Anno: 2021

Regia: Zack Snyder

Attori: Henry Cavill, Ben Affleck, Gal Gadot, Jason Momoa, Ezra Miller, Ray Fisher, Jared Leto, Amber Heard, Robin Wright, Amy Adams, Connie Nielsen, Diane Lane, Ciarán Hinds, Joe Manganiello, Willem Dafoe, J.K. Simmons, Jesse Eisenberg, Jeremy Irons, Kiersey Clemons, Joe Morton, Harry J. Lennix, Peter Guinness

Paese: USA

Durata: 240 min

Sceneggiatura: Chris Terrio, Zack Snyder, Will Beall

Fotografia: Fabian Wagner

Montaggio: David Brenner, Dody Dorn

Musiche: Junkie XL

Produzione: Atlas Entertainment, DC Entertainment, DC Films, HBO Max, RatPac-Dune Entertainment, The Stone Quarry, Warner Bros. Pictures, Warner Bros., Warner Max


Zack Snyder’s Justice League, film diretto da Zack Snyder, racconta come, dopo la morte di Superman, Batman (Ben Affleck) e Wonder Woman (Gal Gadot) decidano di reclutare Flash (Ezra Miller), Aquaman (Jason Momoa) e Cyborg (Ray Fisher) per mettere su una squadra di supereroi in grado di proteggere il mondo dalla minaccia di Steppenwolf (Ciarán Hinds), a comando di diverse truppe di Parademoni.

I nemici vogliono impossessarsi delle tre Scatole Madri, che nelle mani sbagliate potrebbero causare danni di proporzioni catastrofiche. Mettere su una squadra, però, si rivela davvero difficile, perché prima di prendere parte alla battaglia contro Steppenwolf, ogni eroe dovrà prima affrontare i demoni del proprio passato.




General

Unique ID : 209215272938842971803680307880703034827 (0x9D6565598BA9010184C5228AD0C005CB)

Complete name : Zack.Snyder.S.Justice.League.2021.iTA.ENG.AC3.SUB.iTA.ENG.WEB-DL.1080p.x264.jeddak-MIRCrew.mkv

Format : Matroska

Format version : Version 2

File size : 5.37 GiB

Duration : 4 h 2 min

Overall bit rate : 3 179 kb/s

Movie name : Zack.Snyder.S.Justice.League.2021.iTA.ENG.AC3.SUB.iTA.ENG.WEB-DL.1080p.x264.jeddak-MIRCrew

Encoded date : UTC 2021-03-20 16:32:43

Writing application : mkvmerge v5.6.0 (‘Kenya Kane’) built on May 27 2012 16:44:04

Writing library : libebml v1.2.3 + libmatroska v1.3.0 / Lavf58.29.100

Video

ID : 1

Format : AVC

Format/Info : Advanced Video Codec

Format profile : [email protected]
Format settings : CABAC / 4 Ref Frames

Format settings, CABAC : Yes

Format settings, Reference : 4 frames

Codec ID : V_MPEG4/ISO/AVC

Duration : 4 h 2 min

Bit rate : 2 300 kb/s

Width : 1 440 pixels

Height : 1 080 pixels

Display aspect ratio : 4:3

Frame rate mode : Constant

Frame rate : 23.976 (24000/1001) FPS

Color space : YUV

Chroma subsampling : 4:2:0

Bit depth : 8 bits

Scan type : Progressive

Bits/(Pixel*Frame) : 0.062

Stream size : 3.75 GiB (70%)

Title : …::: jeddak MIRCrew :::…

Writing library : x264 core 148

Encoding settings : cabac=1 / ref=3 / deblock=1:-1:-1 / analyse=0x3:0x113 / me=hex / subme=7 / psy=1 / psy_rd=1.00:0.15 / mixed_ref=1 / me_range=16 / chroma_me=1 / trellis=1 / 8x8dct=1 / cqm=0 / deadzone=21,11 / fast_pskip=1 / chroma_qp_offset=-3 / threads=6 / lookahead_threads=1 / sliced_threads=0 / nr=0 / decimate=1 / interlaced=0 / bluray_compat=0 / constrained_intra=0 / bframes=3 / b_pyramid=2 / b_adapt=1 / b_bias=0 / direct=1 / weightb=1 / open_gop=0 / weightp=2 / keyint=240 / keyint_min=24 / scenecut=40 / intra_refresh=0 / rc_lookahead=40 / rc=abr / mbtree=1 / bitrate=2300 / ratetol=1.0 / qcomp=0.60 / qpmin=0 / qpmax=69 / qpstep=4 / vbv_maxrate=62500 / vbv_bufsize=78125 / nal_hrd=none / filler=0 / ip_ratio=1.40 / aq=1:1.00

Default : Yes

Forced : No

Color range : Limited

Color primaries : BT.709

Transfer characteristics : BT.709

Matrix coefficients : BT.709

Audio #1

ID : 2

Format : AC-3

Format/Info : Audio Coding 3

Commercial name : Dolby Digital

Codec ID : A_AC3

Duration : 4 h 2 min

Bit rate mode : Constant

Bit rate : 448 kb/s

Channel(s) : 6 channels

Channel layout : L R C LFE Ls Rs

Sampling rate : 48.0 kHz

Frame rate : 31.250 FPS (1536 SPF)

Compression mode : Lossy

Delay relative to video : -5 ms

Stream size : 776 MiB (14%)

Title : iTA AC3 5.1

Language : Italian

Service kind : Complete Main

Default : Yes

Forced : No

Audio #2

ID : 3
Format : AC-3

Format/Info : Audio Coding 3

Commercial name : Dolby Digital

Codec ID : A_AC3

Duration : 4 h 2 min

Bit rate mode : Constant

Bit rate : 448 kb/s

Channel(s) : 6 channels

Channel layout : L R C LFE Ls Rs

Sampling rate : 48.0 kHz

Frame rate : 31.250 FPS (1536 SPF)

Compression mode : Lossy

Delay relative to video : -5 ms

Stream size : 776 MiB (14%)

Title : ENG AC3 5.1

Language : English

Service kind : Complete Main

Default : No

Forced : No

Text #1

ID : 4

Format : ASS

Codec ID : S_TEXT/ASS

Codec ID/Info : Advanced Sub Station Alpha

Duration : 3 h 53 min

Compression mode : Lossless

Title : iTA FORCED

Language : Italian

Default : Yes

Forced : Yes

Text #2

ID : 5

Format : ASS

Codec ID : S_TEXT/ASS

Codec ID/Info : Advanced Sub Station Alpha

Duration : 4 h 1 min

Compression mode : Lossless

Title : iTA REGULAR

Language : Italian

Default : No

Forced : No

Text #3

ID : 6

Format : ASS

Codec ID : S_TEXT/ASS

Codec ID/Info : Advanced Sub Station Alpha

Duration : 4 h 1 min

Compression mode : Lossless

Title : ENG NON UDENTI

Language : English

Default : No

Forced : No

Zack.Snyder.S.Justice.League.Download Torrent Magnet

#ZackSnyderSJusticeLeague