Yesterday 2019 x264 720p WebH Full Torrent Magnet Download

Download Torrent Yesterday 2019 x264 720p WebH Movie Full in HD Result. Movie Yesterday 2019 x264 720p WebH Torrent Download full. Movie Yesterday 2019 x264 720p WebH torrent Magnet Download Full. Yesterday 2019 x264 720p WebH Full Movie Torrent Download And Magnet Download For your PC And Mobiles. Latest Movie Yesterday 2019 x264 720p WebH Download Link In Bottom.

Torrent And Magnet Links Below

Greets

Admin , Moderator , Noir, Ex0duS5150, theeshiznit, MisterQ, UserHEVC, miok, Silmarillion, Mr. Blue, MaDHeX and many more ;

Join Us On TeleGram

https://t.me/gopisahit

Yesterday 2019 x264 720p WebHD Esub Dual Audio English Hindi THE GOPI SAHI

Format : Matroska

Format version : Version 4

File size : 910 MiB

Duration : 1 h 56 min

Overall bit rate : 1 094 kb/s

Movie name : Yesterday 2019 GOPI SAHI

Video

ID : 1

Format : AVC

Format/Info : Advanced Video Codec

Format profile : [email protected]
Format settings : CABAC / 5 Ref Frames

Format settings, CABAC : Yes

Format settings, Reference fra : 5 frames

Codec ID : V_MPEG4/ISO/AVC

Duration : 1 h 56 min

Bit rate : 899 kb/s

Width : 1 280 pixels

Height : 536 pixels

Display aspect ratio : 2.40:1

Frame rate mode : Constant

Frame rate : 23.976 (24000/1001) FPS

Color space : YUV

Chroma subsampling : 4:2:0

Bit depth : 8 bits

Scan type : Progressive

Bits/(Pixel*Frame) : 0.055

Stream size : 748 MiB (82%)

Title : GOPI SAHI

Writing library : x264 core 157 r2935 545de2f

Audio #1

ID : 2

Format : AAC LC

Format/Info : Advanced Audio Codec Low Complexity

Codec ID : A_AAC-2

Duration : 1 h 56 min

Bit rate : 96.0 kb/s

Channel(s) : 2 channels

Channel layout : L R

Sampling rate : 48.0 kHz

Frame rate : 46.875 FPS (1024 SPF)

Compression mode : Lossy

Delay relative to video : -21 ms

Stream size : 79.8 MiB (9%)

Title : GOPI SAHI

Language : Hindi

Default : Yes

Forced : No

Audio #2

ID : 3

Format : AAC LC

Format/Info : Advanced Audio Codec Low Complexity

Codec ID : A_AAC-2

Duration : 1 h 56 min

Bit rate : 96.0 kb/s

Channel(s) : 2 channels

Channel layout : L R

Sampling rate : 48.0 kHz

Frame rate : 46.875 FPS (1024 SPF)

Compression mode : Lossy

Delay relative to video : -21 ms

Stream size : 79.8 MiB (9%)

Title : GOPI SAHI

Language : English

Default : No

Forced : No

Text

ID : 4

Format : UTF-8

Codec ID : S_TEXT/UTF8

Codec ID/Info : UTF-8 Plain Text

Duration : 1 h 54 min

Bit rate : 88 b/s

Count of elements : 2129

Stream size : 74.6 KiB (0%)

Title : GOPI SAHI

Language : English

Default : Yes

Forced : No

Yesterday 2019 x264 720p WebHDownload Torrent Magnet

#Yesterday #x264 #720p #WebH