Yes.Day.2021.HDRip.XviD.B4ND1 Full Torrent Magnet Download

Download Torrent Yes.Day.2021.HDRip.XviD.B4ND1 Movie Full in HD Result. Movie Yes.Day.2021.HDRip.XviD.B4ND1 Torrent Download full. Movie Yes.Day.2021.HDRip.XviD.B4ND1 torrent Magnet Download Full. Yes.Day.2021.HDRip.XviD.B4ND1 Full Movie Torrent Download And Magnet Download For your PC And Mobiles. Latest Movie Yes.Day.2021.HDRip.XviD.B4ND1 Download Link In Bottom.

Torrent And Magnet Links Below

Yes.Day.2021.HDRip.XviD.B4ND1T69

Director: Miguel Arteta

Writers: Justin Malen (screen story by), Justin Malen (screenplay by)

Stars: Jennifer Garner, Edgar Ramírez, Jenna Ortega

Plot/Story:

Allison and Carlos decide to give their three kids a “yes day”, where for 24 hours the kids make the rules.

General

Complete name : Yes.Day.2021.HDRip.XviD.B4ND1T69.avi

Format : AVI

Format/Info : Audio Video Interleave

File size : 1.09 GiB

Duration : 1 h 29 min

Overall bit rate : 1 741 kb/s

Subtitles : Yes…Hardcoded for non-English parts + file included(HI)

Video

ID : 0

Format : MPEG-4 Visual

Format profile : Advanced [email protected]
Format settings, BVOP : 2

Format settings, QPel : No

Format settings, GMC : No warppoints

Format settings, Matrix : Default (H.263)

Codec ID : XVID

Codec ID/Hint : XviD

Duration : 1 h 29 min

Bit rate : 1 599 kb/s

Width : 720 pixels

Height : 352 pixels

Display aspect ratio : 2.045

Frame rate : 24.000 FPS

Color space : YUV

Chroma subsampling : 4:2:0

Bit depth : 8 bits

Scan type : Progressive

Compression mode : Lossy

Bits/(Pixel*Frame) : 0.263

Stream size : 1.00 GiB (92%)

Writing library : XviD 64

Audio

ID : 1

Format : MPEG Audio

Format version : Version 1

Format profile : Layer 3

Codec ID : 55

Codec ID/Hint : MP3

Duration : 1 h 29 min

Bit rate mode : Constant

Bit rate : 128 kb/s

Channel(s) : 2 channels

Sampling rate : 48.0 kHz

Compression mode : Lossy

Stream size : 82.1 MiB (7%)

Alignment : Aligned on interleaves

Interleave, duration : 24 ms (0.58 video frame)

Screenshots:









Please Seed For As Long As Possible

Or At Least 1:1 Ratio…Thanks

Enjoy Peeps

Yes.Day.2021.HDRip.XviD.B4ND1Download Torrent Magnet

#YesDay2021HDRipXviDB4ND1