Yes.Day.2021.1080p.NF.WEBRip. Full Torrent Magnet Download

Download Torrent Yes.Day.2021.1080p.NF.WEBRip. Movie Full in HD Result. Movie Yes.Day.2021.1080p.NF.WEBRip. Torrent Download full. Movie Yes.Day.2021.1080p.NF.WEBRip. torrent Magnet Download Full. Yes.Day.2021.1080p.NF.WEBRip. Full Movie Torrent Download And Magnet Download For your PC And Mobiles. Latest Movie Yes.Day.2021.1080p.NF.WEBRip. Download Link In Bottom.

Torrent And Magnet Links Below

https://www.imdb.com/title/tt8521876/

Allison and Carlos decide to give their three kids a “yes day”, where for 24 hours the kids make the rules.

Video

ID : 1

Format : AVC

Format/Info : Advanced Video Codec

Format profile : [email protected]
Format settings : CABAC / 3 Ref Frames

Format settings, CABAC : Yes

Format settings, Reference frames : 3 frames

Codec ID : V_MPEG4/ISO/AVC

Duration : 1 h 29 min

Bit rate mode : Variable

Bit rate : 4 222 kb/s

Maximum bit rate : 10.2 Mb/s

Width : 1 920 pixels

Height : 1 080 pixels

Display aspect ratio : 16:9

Frame rate mode : Constant

Frame rate : 24.000 FPS

Color space : YUV

Chroma subsampling : 4:2:0

Bit depth : 8 bits

Scan type : Progressive

Bits/(Pixel*Frame) : 0.085

Stream size : 2.66 GiB (85%)

Writing library : x264 core 148 r2722 1b0121b

Encoding settings : cabac=1 / ref=3 / deblock=1:0:0 / analyse=0x1:0x111 / me=umh / subme=10 / psy=1 / psy_rd=1.00:0.00 / mixed_ref=1 / me_range=24 / chroma_me=1 / trellis=2 / 8x8dct=0 / cqm=0 / deadzone=21,11 / fast_pskip=1 / chroma_qp_offset=-2 / threads=6 / lookahead_threads=1 / sliced_threads=0 / nr=0 / decimate=1 / interlaced=0 / bluray_compat=0 / stitchable=1 / constrained_intra=0 / bframes=2 / b_pyramid=0 / b_adapt=2 / b_bias=0 / direct=3 / weightb=1 / open_gop=0 / weightp=2 / keyint=250 / keyint_min=24 / scenecut=0 / intra_refresh=0 / rc_lookahead=48 / rc=2pass / mbtree=1 / bitrate=4222 / ratetol=1.0 / qcomp=0.50 / qpmin=6 / qpmax=51 / qpstep=4 / cplxblur=20.0 / qblur=0.5 / vbv_maxrate=10215 / vbv_bufsize=13620 / nal_hrd=vbr / filler=0 / ip_ratio=1.40 / aq=1:1.00

Default : Yes

Forced : No

Audio

ID : 2

Format : E-AC-3 JOC

Format/Info : Enhanced AC-3 with Joint Object Coding

Commercial name : Dolby Digital Plus with Dolby Atmos

Codec ID : A_EAC3

Duration : 1 h 29 min

Bit rate mode : Constant

Bit rate : 768 kb/s

Channel(s) : 6 channels

Channel layout : L R C LFE Ls Rs

Sampling rate : 48.0 kHz

Frame rate : 31.250 FPS (1536 SPF)

Compression mode : Lossy

Stream size : 492 MiB (15%)

Language : English

Service kind : Complete Main

Default : Yes

Forced : No

Complexity index : 16

Number of dynamic objects : 15

Bed channel count : 1 channel

Bed channel configuration : LFE

Text #1

ID : 3

Format : UTF-8

Codec ID : S_TEXT/UTF8

Codec ID/Info : UTF-8 Plain Text

Duration : 43 min 45 s

Bit rate : 0 b/s

Count of elements : 10

Stream size : 276 Bytes (0%)

Title : Forced

Language : English

Default : Yes

Forced : Yes

Text #2

ID : 4

Format : UTF-8

Codec ID : S_TEXT/UTF8

Codec ID/Info : UTF-8 Plain Text

Duration : 1 h 21 min

Bit rate : 85 b/s

Count of elements : 1557

Stream size : 50.9 KiB (0%)

Title : SDH

Language : Spanish

Default : No

Forced : No

Text #3

ID : 5

Format : UTF-8

Codec ID : S_TEXT/UTF8

Codec ID/Info : UTF-8 Plain Text

Duration : 1 h 20 min

Bit rate : 96 b/s

Count of elements : 1714

Stream size : 56.8 KiB (0%)

Title : SDH

Language : Italian

Default : No

Forced : No

Text #4

ID : 6

Format : UTF-8

Codec ID : S_TEXT/UTF8

Codec ID/Info : UTF-8 Plain Text

Duration : 1 h 25 min

Bit rate : 100 b/s

Count of elements : 1777

Stream size : 62.8 KiB (0%)

Title : SDH

Language : German

Default : No

Forced : No

Text #5

ID : 7

Format : UTF-8

Codec ID : S_TEXT/UTF8

Codec ID/Info : UTF-8 Plain Text

Duration : 1 h 25 min

Bit rate : 94 b/s

Count of elements : 1872

Stream size : 59.4 KiB (0%)

Title : SDH

Language : French

Default : No

Forced : No

Text #6

ID : 8

Format : UTF-8

Codec ID : S_TEXT/UTF8

Codec ID/Info : UTF-8 Plain Text

Duration : 1 h 21 min

Bit rate : 96 b/s

Count of elements : 1828

Stream size : 57.2 KiB (0%)

Title : SDH

Language : English

Default : No

Forced : No

Text #7

ID : 9

Format : UTF-8

Codec ID : S_TEXT/UTF8

Codec ID/Info : UTF-8 Plain Text

Duration : 1 h 21 min

Bit rate : 92 b/s

Count of elements : 1684

Stream size : 55.0 KiB (0%)

Title : SDH

Language : Portuguese

Default : No

Forced : No

Text #8

ID : 10

Format : UTF-8

Codec ID : S_TEXT/UTF8

Codec ID/Info : UTF-8 Plain Text

Duration : 1 h 25 min

Bit rate : 130 b/s

Count of elements : 1478

Stream size : 82.1 KiB (0%)

Language : Arabic

Default : No

Forced : No

Text #9

ID : 11

Format : UTF-8

Codec ID : S_TEXT/UTF8

Codec ID/Info : UTF-8 Plain Text

Duration : 1 h 25 min

Bit rate : 64 b/s

Count of elements : 1431

Stream size : 40.2 KiB (0%)

Language : Czech

Default : No

Forced : No

Text #10

ID : 12

Format : UTF-8

Codec ID : S_TEXT/UTF8

Codec ID/Info : UTF-8 Plain Text

Duration : 1 h 25 min

Bit rate : 61 b/s

Count of elements : 1107

Stream size : 38.3 KiB (0%)

Language : Danish

Default : No

Forced : No

Text #11

ID : 13

Format : UTF-8

Codec ID : S_TEXT/UTF8

Codec ID/Info : UTF-8 Plain Text

Duration : 1 h 25 min

Bit rate : 68 b/s

Count of elements : 1388

Stream size : 43.3 KiB (0%)

Language : German

Default : No

Forced : No

Text #12

ID : 14

Format : UTF-8

Codec ID : S_TEXT/UTF8

Codec ID/Info : UTF-8 Plain Text

Duration : 1 h 25 min

Bit rate : 115 b/s

Count of elements : 1412

Stream size : 72.5 KiB (0%)

Language : Greek

Default : No

Forced : No

Text #13

ID : 15

Format : UTF-8

Codec ID : S_TEXT/UTF8

Codec ID/Info : UTF-8 Plain Text

Duration : 1 h 25 min

Bit rate : 68 b/s

Count of elements : 1453

Stream size : 42.9 KiB (0%)

Language : Spanish

Default : No

Forced : No

Text #14

ID : 16

Format : UTF-8

Codec ID : S_TEXT/UTF8

Codec ID/Info : UTF-8 Plain Text

Duration : 1 h 25 min

Bit rate : 64 b/s

Count of elements : 1441

Stream size : 40.6 KiB (0%)

Language : Spanish

Default : No

Forced : No

Text #15

ID : 17

Format : UTF-8

Codec ID : S_TEXT/UTF8

Codec ID/Info : UTF-8 Plain Text

Duration : 1 h 25 min

Bit rate : 65 b/s

Count of elements : 1374

Stream size : 41.0 KiB (0%)

Language : Finnish

Default : No

Forced : No

Text #16

ID : 18

Format : UTF-8

Codec ID : S_TEXT/UTF8

Codec ID/Info : UTF-8 Plain Text

Duration : 1 h 25 min

Bit rate : 69 b/s

Count of elements : 1473

Stream size : 43.4 KiB (0%)

Language : French

Default : No

Forced : No

Text #17

ID : 19

Format : UTF-8

Codec ID : S_TEXT/UTF8

Codec ID/Info : UTF-8 Plain Text

Duration : 1 h 25 min

Bit rate : 123 b/s

Count of elements : 1403

Stream size : 77.8 KiB (0%)

Language : Hebrew

Default : No

Forced : No

Text #18

ID : 20

Format : UTF-8

Codec ID : S_TEXT/UTF8

Codec ID/Info : UTF-8 Plain Text

Duration : 1 h 25 min

Bit rate : 60 b/s

Count of elements : 1431

Stream size : 38.0 KiB (0%)

Language : Croatian

Default : No

Forced : No

Text #19

ID : 21

Format : UTF-8

Codec ID : S_TEXT/UTF8

Codec ID/Info : UTF-8 Plain Text

Duration : 1 h 25 min

Bit rate : 65 b/s

Count of elements : 1380

Stream size : 40.8 KiB (0%)

Language : Hungarian

Default : No

Forced : No

Text #20

ID : 22

Format : UTF-8

Codec ID : S_TEXT/UTF8

Codec ID/Info : UTF-8 Plain Text

Duration : 1 h 25 min

Bit rate : 73 b/s

Count of elements : 1464

Stream size : 45.8 KiB (0%)

Language : Indonesian

Default : No

Forced : No

Text #21

ID : 23

Format : UTF-8

Codec ID : S_TEXT/UTF8

Codec ID/Info : UTF-8 Plain Text

Duration : 1 h 25 min

Bit rate : 68 b/s

Count of elements : 1348

Stream size : 42.9 KiB (0%)

Language : Italian

Default : No

Forced : No

Text #22

ID : 24

Format : UTF-8

Codec ID : S_TEXT/UTF8

Codec ID/Info : UTF-8 Plain Text

Duration : 1 h 25 min

Bit rate : 71 b/s

Count of elements : 1512

Stream size : 44.8 KiB (0%)

Language : Japanese

Default : No

Forced : No

Text #23

ID : 25

Format : UTF-8

Codec ID : S_TEXT/UTF8

Codec ID/Info : UTF-8 Plain Text

Duration : 1 h 25 min

Bit rate : 88 b/s

Count of elements : 1493

Stream size : 55.8 KiB (0%)

Language : Korean

Default : No

Forced : No

Text #24

ID : 26

Format : UTF-8

Codec ID : S_TEXT/UTF8

Codec ID/Info : UTF-8 Plain Text

Duration : 1 h 25 min

Bit rate : 66 b/s

Count of elements : 1397

Stream size : 41.5 KiB (0%)

Language : Malay

Default : No

Forced : No

Text #25

ID : 27

Format : UTF-8

Codec ID : S_TEXT/UTF8

Codec ID/Info : UTF-8 Plain Text

Duration : 1 h 25 min

Bit rate : 66 b/s

Count of elements : 1265

Stream size : 41.8 KiB (0%)

Language : Norwegian Bokmal

Default : No

Forced : No

Text #26

ID : 28

Format : UTF-8

Codec ID : S_TEXT/UTF8

Codec ID/Info : UTF-8 Plain Text

Duration : 1 h 20 min

Bit rate : 78 b/s

Count of elements : 1458

Stream size : 46.4 KiB (0%)

Language : Dutch

Default : No

Forced : No

Text #27

ID : 29

Format : UTF-8

Codec ID : S_TEXT/UTF8

Codec ID/Info : UTF-8 Plain Text

Duration : 1 h 25 min

Bit rate : 57 b/s

Count of elements : 1357

Stream size : 36.0 KiB (0%)

Language : Polish

Default : No

Forced : No

Text #28

ID : 30

Format : UTF-8

Codec ID : S_TEXT/UTF8

Codec ID/Info : UTF-8 Plain Text

Duration : 1 h 20 min

Bit rate : 75 b/s

Count of elements : 1389

Stream size : 44.1 KiB (0%)

Title : Brasil

Language : Portuguese

Default : No

Forced : No

Text #29

ID : 31

Format : UTF-8

Codec ID : S_TEXT/UTF8

Codec ID/Info : UTF-8 Plain Text

Duration : 1 h 25 min

Bit rate : 67 b/s

Count of elements : 1388

Stream size : 42.3 KiB (0%)

Language : Portuguese

Default : No

Forced : No

Text #30

ID : 32

Format : UTF-8

Codec ID : S_TEXT/UTF8

Codec ID/Info : UTF-8 Plain Text

Duration : 1 h 25 min

Bit rate : 78 b/s

Count of elements : 1485

Stream size : 49.0 KiB (0%)

Language : Romanian

Default : No

Forced : No

Text #31

ID : 33

Format : UTF-8

Codec ID : S_TEXT/UTF8

Codec ID/Info : UTF-8 Plain Text

Duration : 1 h 25 min

Bit rate : 115 b/s

Count of elements : 1449

Stream size : 72.8 KiB (0%)

Language : Russian

Default : No

Forced : No

Text #32

ID : 34

Format : UTF-8

Codec ID : S_TEXT/UTF8

Codec ID/Info : UTF-8 Plain Text

Duration : 1 h 25 min

Bit rate : 67 b/s

Count of elements : 1274

Stream size : 42.1 KiB (0%)

Language : Swedish

Default : No

Forced : No

Text #33

ID : 35

Format : UTF-8

Codec ID : S_TEXT/UTF8

Codec ID/Info : UTF-8 Plain Text

Duration : 1 h 25 min

Bit rate : 197 b/s

Count of elements : 1484

Stream size : 124 KiB (0%)

Language : Thai

Default : No

Forced : No

Text #34

ID : 36

Format : UTF-8

Codec ID : S_TEXT/UTF8

Codec ID/Info : UTF-8 Plain Text

Duration : 1 h 25 min

Bit rate : 65 b/s

Count of elements : 1418

Stream size : 41.3 KiB (0%)

Language : Turkish

Default : No

Forced : No

Text #35

ID : 37

Format : UTF-8

Codec ID : S_TEXT/UTF8

Codec ID/Info : UTF-8 Plain Text

Duration : 1 h 25 min

Bit rate : 107 b/s

Count of elements : 1450

Stream size : 67.5 KiB (0%)

Language : Vietnamese

Default : No

Forced : No

Text #36

ID : 38

Format : UTF-8

Codec ID : S_TEXT/UTF8

Codec ID/Info : UTF-8 Plain Text

Duration : 1 h 25 min

Bit rate : 81 b/s

Count of elements : 1547

Stream size : 50.9 KiB (0%)

Title : Simplified

Language : Chinese

Default : No

Forced : No

Text #37

ID : 39

Format : UTF-8

Codec ID : S_TEXT/UTF8

Codec ID/Info : UTF-8 Plain Text

Duration : 1 h 25 min

Bit rate : 76 b/s

Count of elements : 1640

Stream size : 48.1 KiB (0%)

Title : Traditional

Language : Chinese

Default : No

Forced : No

Yes.Day.2021.1080p.NF.WEBRip.Download Torrent Magnet

#YesDay20211080pNFWEBRip