Yaariyan 2014 1080p 10bit Blu Full Torrent Magnet Download

Download Torrent Yaariyan 2014 1080p 10bit Blu Movie Full in HD Result. Movie Yaariyan 2014 1080p 10bit Blu Torrent Download full. Movie Yaariyan 2014 1080p 10bit Blu torrent Magnet Download Full. Yaariyan 2014 1080p 10bit Blu Full Movie Torrent Download And Magnet Download For your PC And Mobiles. Latest Movie Yaariyan 2014 1080p 10bit Blu Download Link In Bottom.

Torrent And Magnet Links Below


General

Unique ID                                : 64784363273911157735682208007730882571 (0x30BD03B74D83B36CCB73C114C2F5E80B)

Complete name                            : F:EncodeYaariyan 2014 1080p 10bit BluRay Hindi AAC 5.1 x265 HEVC – MoviePirate – Telly.mkv

Format                                   : Matroska

Format version                           : Version 4

File size                                : 2.50 GiB

Duration                                 : 2 h 19 min

Overall bit rate                         : 2 561 kb/s

Movie name                               : Yaariyan (2014)

Encoded date                             : UTC 2021-02-10 14:27:49

Writing application                      : mkvmerge v39.0.0 (‘In The Waiting Line’) 64-bit

Writing library                          : libebml v1.3.9 + libmatroska v1.5.2

Cover                                    : Yes

Attachments                              : cover.png

Video

ID                                       : 1

Format                                   : HEVC

Format/Info                              : High Efficiency Video Coding

Format profile                           : Main [email protected]@Main

Codec ID                                 : V_MPEGH/ISO/HEVC

Duration                                 : 2 h 19 min

Bit rate                                 : 2 281 kb/s

Width                                    : 1 920 pixels

Height                                   : 816 pixels

Display aspect ratio                     : 2.35:1

Frame rate mode                          : Constant

Frame rate                               : 24.000 FPS

Color space                              : YUV

Chroma subsampling                       : 4:2:0

Bit depth                                : 10 bits

Bits/(Pixel*Frame)                       : 0.061

Stream size                              : 2.23 GiB (89%)

Writing library                          : x265 3.2+9-971180b100f8:[Windows][GCC 9.2.0][64 bit] 10bit

Encoding settings                        : cpuid=1111039 / frame-threads=2 / numa-pools=4 / wpp / no-pmode / no-pme / no-psnr / no-ssim / log-level=2 / input-csp=1 / input-res=1920×816 / interlace=0 / total-frames=201366 / level-idc=0 / high-tier=1 / uhd-bd=0 / ref=2 / no-allow-non-conformance / no-repeat-headers / annexb / no-aud / no-hrd / info / hash=0 / no-temporal-layers / open-gop / min-keyint=24 / keyint=250 / gop-lookahead=0 / bframes=4 / b-adapt=0 / b-pyramid / bframe-bias=0 / rc-lookahead=15 / lookahead-slices=5 / scenecut=40 / radl=0 / no-splice / no-intra-refresh / ctu=64 / min-cu-size=8 / no-rect / no-amp / max-tu-size=32 / tu-inter-depth=1 / tu-intra-depth=1 / limit-tu=0 / rdoq-level=0 / dynamic-rd=0.00 / no-ssim-rd / signhide / no-tskip / nr-intra=0 / nr-inter=0 / no-constrained-intra / strong-intra-smoothing / max-merge=2 / limit-refs=3 / no-limit-modes / me=1 / subme=2 / merange=57 / temporal-mvp / no-frame-dup / no-hme / weightp / no-weightb / no-analyze-src-pics / deblock=0:0 / sao / no-sao-non-deblock / rd=2 / selective-sao=4 / early-skip / rskip / fast-intra / no-tskip-fast / no-cu-lossless / no-b-intra / no-splitrd-skip / rdpenalty=0 / psy-rd=2.00 / psy-rdoq=0.00 / no-rd-refine / no-lossless / cbqpoffs=0 / crqpoffs=0 / rc=abr / bitrate=2300 / qcomp=0.60 / qpstep=4 / stats-write=0 / stats-read=0 / ipratio=1.40 / pbratio=1.30 / aq-mode=2 / aq-strength=1.00 / cutree / zone-count=0 / no-strict-cbr / qg-size=32 / no-rc-grain / qpmax=69 / qpmin=0 / no-const-vbv / sar=0 / overscan=0 / videoformat=5 / range=0 / colorprim=2 / transfer=2 / colormatrix=2 / chromaloc=0 / display-window=0 / cll=0,0 / min-luma=0 / max-luma=1023 / log2-max-poc-lsb=8 / vui-timing-info / vui-hrd-info / slices=1 / no-opt-qp-pps / no-opt-ref-list-length-pps / no-multi-pass-opt-rps / scenecut-bias=0.05 / no-opt-cu-delta-qp / no-aq-motion / no-hdr / no-hdr-opt / no-dhdr10-opt / no-idr-recovery-sei / analysis-reuse-level=5 / scale-factor=0 / refine-intra=0 / refine-inter=0 / refine-mv=1 / refine-ctu-distortion=0 / no-limit-sao / ctu-info=0 / no-lowpass-dct / refine-analysis-type=0 / copy-pic=1 / max-ausize-factor=1.0 / no-dynamic-refine / no-single-sei / no-hevc-aq / no-svt / no-field / qp-adaptation-range=1.00

Default                                  : Yes

Forced                                   : No

Audio

ID                                       : 2

Format                                   : AAC LC SBR

Format/Info                              : Advanced Audio Codec Low Complexity with Spectral Band Replication

Commercial name                          : HE-AAC

Format settings                          : Explicit

Codec ID                                 : A_AAC-2

Duration                                 : 2 h 19 min

Bit rate                                 : 256 kb/s

Channel(s)                               : 6 channels

Channel layout                           : C L R Ls Rs LFE

Sampling rate                            : 48.0 kHz

Frame rate                               : 23.438 FPS (2048 SPF)

Compression mode                         : Lossy

Stream size                              : 256 MiB (10%)

Title                                    : MoviePirate – Telly

Language                                 : Hindi

Default                                  : No

Forced                                   : No

Text

ID                                       : 3

Format                                   : PGS

Muxing mode                              : zlib

Codec ID                                 : S_HDMV/PGS

Codec ID/Info                            : Picture based subtitle format used on BDs/HD-DVDs

Duration                                 : 2 h 17 min

Bit rate                                 : 26.6 kb/s

Count of elements                        : 3068

Stream size                              : 26.2 MiB (1%)

Language                                 : English

Default                                  : No

Forced                                   : No

Menu

00:00:00.000                             : en:Movie Begins

00:01:19.708                             : en:♪ Sunny Sunny (Titles) ♪

00:03:14.417                             : en:Introduction

00:19:46.000                             : en:The Challenge

00:32:33.458                             : en:♪ ABCD ♪

00:42:17.000                             : en:The Team Leaves For Australia

00:48:20.000                             : en:♪ Sunny Sunny ♪

00:51:34.000                             : en:The Competition Begins

00:57:53.792                             : en:♪ Meri Maa ♪

01:03:42.083                             : en:Second Round

01:08:30.000                             : en:Bike Race

01:12:34.625                             : en:♪ Allah Waariyan ♪

01:20:26.625                             : en:Dance Practice

01:28:09.000                             : en:♪ Love Me Thoda Aur ♪

01:38:36.208                             : en:♪ Baarish ♪

01:41:57.417                             : en:Saloni’s Swayamwar

01:45:40.667                             : en:♪ Mujhe Ishq Se ♪

01:49:15.250                             : en:The Finals

02:02:09.625                             : en:Climax

02:15:30.417                             : en:♪ Zor Lagaake Haishaa (End Credits) ♪









Yaariyan 2014 1080p 10bit BluDownload Torrent Magnet

#Yaariyan #1080p #10bit #Blu