Xtreme 2021 x264 720p WebHD E Full Torrent Magnet Download

Download Torrent Xtreme 2021 x264 720p WebHD E Movie Full in HD Result. Movie Xtreme 2021 x264 720p WebHD E Torrent Download full. Movie Xtreme 2021 x264 720p WebHD E torrent Magnet Download Full. Xtreme 2021 x264 720p WebHD E Full Movie Torrent Download And Magnet Download For your PC And Mobiles. Latest Movie Xtreme 2021 x264 720p WebHD E Download Link In Bottom.

Torrent And Magnet Links Below

Greets

Admin , Moderator , Noir, Ex0duS5150, theeshiznit, MisterQ, UserHEVC, miok, Silmarillion, Mr. Blue, MaDHeX and many more ;

Join Us On TeleGram

https://t.me/gopisahit

Xtreme 2021 x264 720p WebHD Esub Dual Audio English Hindi THE GOPI SAHI

Format : Matroska

Format version : Version 4

File size : 1.01 GiB

Duration : 1 h 52 min

Overall bit rate : 1 282 kb/s

Movie name : Xtreme 2021 GOPI SAHI

Encoded date : UTC 2021-06-05 02:44:07

Video

ID : 1

Format : AVC

Format/Info : Advanced Video Codec

Format profile : [email protected]
Format settings : CABAC / 5 Ref Frames

Format settings, CABAC : Yes

Format settings, Reference fra : 5 frames

Codec ID : V_MPEG4/ISO/AVC

Duration : 1 h 52 min

Bit rate : 899 kb/s

Width : 1 280 pixels

Height : 534 pixels

Display aspect ratio : 2.40:1

Frame rate mode : Constant

Frame rate : 25.000 FPS

Color space : YUV

Chroma subsampling : 4:2:0

Bit depth : 8 bits

Scan type : Progressive

Bits/(Pixel*Frame) : 0.053

Stream size : 722 MiB (70%)

Title : GOPI SAHI

Writing library : x264 core 157 r2935 545de2f

Audio #1

ID : 2

Format : AAC LC

Format/Info : Advanced Audio Codec Low Complexity

Codec ID : A_AAC-2

Duration : 1 h 52 min

Bit rate : 192 kb/s

Channel(s) : 6 channels

Channel layout : C L R Ls Rs LFE

Sampling rate : 48.0 kHz

Frame rate : 46.875 FPS (1024 SPF)

Compression mode : Lossy

Delay relative to video : -21 ms

Stream size : 153 MiB (15%)

Title : GOPI SAHI

Language : Hindi

Default : Yes

Forced : No

Audio #2

ID : 3

Format : AAC LC

Format/Info : Advanced Audio Codec Low Complexity

Codec ID : A_AAC-2

Duration : 1 h 52 min

Bit rate : 192 kb/s

Channel(s) : 6 channels

Channel layout : C L R Ls Rs LFE

Sampling rate : 48.0 kHz

Frame rate : 46.875 FPS (1024 SPF)

Compression mode : Lossy

Delay relative to video : -21 ms

Stream size : 153 MiB (15%)

Title : GOPI SAHI

Language : English

Default : No

Forced : No

Text

ID : 4

Format : UTF-8

Codec ID : S_TEXT/UTF8

Codec ID/Info : UTF-8 Plain Text

Duration : 1 h 50 min

Bit rate : 35 b/s

Count of elements : 1075

Stream size : 29.3 KiB (0%)

Title : GOPI SAHI

Language : English

Default : Yes

Forced : No

Xtreme 2021 x264 720p WebHD EDownload Torrent Magnet

#Xtreme #x264 #720p #WebHD