X-Men Origins: Wolverine (200 Full Torrent Magnet Download

Download Torrent X-Men Origins: Wolverine (200 Movie Full in HD Result. Movie X-Men Origins: Wolverine (200 Torrent Download full. Movie X-Men Origins: Wolverine (200 torrent Magnet Download Full. X-Men Origins: Wolverine (200 Full Movie Torrent Download And Magnet Download For your PC And Mobiles. Latest Movie X-Men Origins: Wolverine (200 Download Link In Bottom.

Torrent And Magnet Links Below

General

Unique ID :
Complete name :
Format : Matroska

Format version : Version 4

File size : 9.04 GiB

Duration : 1 h 47 min

Overall bit rate : 12.1 Mb/s

Movie name : X-Men Origins – Wolverine (2009) 1080p x265 HEVC 10bit BluRay AC3 5.1 [Prof]
Encoded date : UTC 2021-03-12 09:13:16

Writing application : mkvmerge v53.0.0 (‘Fool’s Gold’) 64-bit

Writing library : libebml v1.4.1 + libmatroska v1.6.2

Video

ID : 1

Format : HEVC

Format/Info : High Efficiency Video Coding

Format profile : Main [email protected]@Main

Codec ID : V_MPEGH/ISO/HEVC

Duration : 1 h 47 min

Bit rate : 11.3 Mb/s

Width : 1 920 pixels

Height : 816 pixels

Display aspect ratio : 2.35:1

Frame rate mode : Constant

Frame rate : 23.976 (24000/1001) FPS

Color space : YUV

Chroma subsampling : 4:2:0

Bit depth : 10 bits

Bits/(Pixel*Frame) : 0.302

Stream size : 8.50 GiB (94%)

Writing library : x265 3.5_RC1+2+23-bd060601e:[Windows][GCC 10.2.0][64 bit] 10bit

Encoding settings : cpuid=1111039 / frame-threads=4 / numa-pools=24 / wpp / no-pmode / no-pme / no-psnr / no-ssim / log-level=2 / input-csp=1 / input-res=1920×816 / interlace=0 / total-frames=154439 / level-idc=0 / high-tier=1 / uhd-bd=0 / ref=5 / no-allow-non-conformance / no-repeat-headers / annexb / no-aud / no-hrd / info / hash=0 / no-temporal-layers / open-gop / min-keyint=23 / keyint=250 / gop-lookahead=0 / bframes=8 / b-adapt=2 / b-pyramid / bframe-bias=0 / rc-lookahead=80 / lookahead-slices=4 / scenecut=40 / hist-scenecut=0 / radl=0 / no-splice / no-intra-refresh / ctu=64 / min-cu-size=8 / rect / amp / max-tu-size=32 / tu-inter-depth=3 / tu-intra-depth=3 / limit-tu=4 / rdoq-level=2 / dynamic-rd=0.00 / no-ssim-rd / signhide / no-tskip / nr-intra=0 / nr-inter=0 / no-constrained-intra / strong-intra-smoothing / max-merge=4 / limit-refs=1 / limit-modes / me=3 / subme=4 / merange=57 / temporal-mvp / no-frame-dup / no-hme / weightp / weightb / no-analyze-src-pics / deblock=0:0 / sao / no-sao-non-deblock / rd=6 / selective-sao=4 / no-early-skip / rskip / no-fast-intra / no-tskip-fast / no-cu-lossless / b-intra / no-splitrd-skip / rdpenalty=0 / psy-rd=2.00 / psy-rdoq=1.00 / no-rd-refine / no-lossless / cbqpoffs=0 / crqpoffs=0 / rc=crf / crf=19.0 / qcomp=0.60 / qpstep=4 / stats-write=0 / stats-read=0 / ipratio=1.40 / pbratio=1.30 / aq-mode=3 / aq-strength=1.00 / cutree / zone-count=0 / no-strict-cbr / qg-size=32 / no-rc-grain / qpmax=69 / qpmin=0 / no-const-vbv / sar=0 / overscan=0 / videoformat=5 / range=0 / colorprim=1 / transfer=1 / colormatrix=1 / chromaloc=0 / display-window=0 / cll=0,0 / min-luma=0 / max-luma=1023 / log2-max-poc-lsb=8 / vui-timing-info / vui-hrd-info / slices=1 / no-opt-qp-pps / no-opt-ref-list-length-pps / no-multi-pass-opt-rps / scenecut-bias=0.05 / hist-threshold=0.03 / no-opt-cu-delta-qp / no-aq-motion / no-hdr10 / no-hdr10-opt / no-dhdr10-opt / no-idr-recovery-sei / analysis-reuse-level=0 / analysis-save-reuse-level=0 / analysis-load-reuse-level=0 / scale-factor=0 / refine-intra=0 / refine-inter=0 / refine-mv=1 / refine-ctu-distortion=0 / no-limit-sao / ctu-info=0 / no-lowpass-dct / refine-analysis-type=0 / copy-pic=1 / max-ausize-factor=1.0 / no-dynamic-refine / no-single-sei / no-hevc-aq / no-svt / no-field / qp-adaptation-range=1.00 / scenecut-aware-qp=0conformance-window-offsets / right=0 / bottom=0 / decoder-max-rate=0 / no-vbv-live-multi-pass

Default : Yes

Forced : No

Color range : Limited

Color primaries : BT.709

Transfer characteristics : BT.709

Matrix coefficients : BT.709

Audio

ID : 2

Format : AC-3

Format/Info : Audio Coding 3

Commercial name : Dolby Digital

Codec ID : A_AC3

Duration : 1 h 47 min

Bit rate mode : Constant

Bit rate : 640 kb/s

Channel(s) : 6 channels

Channel layout : L R C LFE Ls Rs

Sampling rate : 48.0 kHz

Frame rate : 31.250 FPS (1536 SPF)

Compression mode : Lossy

Stream size : 491 MiB (5%)

Language : English

Service kind : Complete Main

Default : Yes

Forced : No

Text #1

ID : 3

Format : PGS

Muxing mode : zlib

Codec ID : S_HDMV/PGS

Codec ID/Info : Picture based subtitle format used on BDs/HD-DVDs

Duration : 1 h 46 min

Bit rate : 26.2 kb/s

Count of elements : 2214

Stream size : 19.9 MiB (0%)

Language : English

Default : No

Forced : No

Text #2

ID : 4

Format : PGS

Muxing mode : zlib

Codec ID : S_HDMV/PGS

Codec ID/Info : Picture based subtitle format used on BDs/HD-DVDs

Duration : 1 h 40 min

Bit rate : 23.7 kb/s

Count of elements : 1704

Stream size : 17.1 MiB (0%)

Language : Spanish

Default : No

Forced : No

Text #3

ID : 5

Format : PGS

Muxing mode : zlib

Codec ID : S_HDMV/PGS

Codec ID/Info : Picture based subtitle format used on BDs/HD-DVDs

Duration : 1 h 40 min

Bit rate : 23.4 kb/s

Count of elements : 1704

Stream size : 16.8 MiB (0%)

Language : Portuguese

Default : No

Forced : No

Text #4

ID : 6

Format : PGS

Muxing mode : zlib

Codec ID : S_HDMV/PGS

Codec ID/Info : Picture based subtitle format used on BDs/HD-DVDs

Duration : 1 h 40 min

Bit rate : 15.2 kb/s

Count of elements : 1712

Stream size : 10.9 MiB (0%)

Language : Chinese

Default : No

Forced : No

Text #5

ID : 7

Format : PGS

Muxing mode : zlib

Codec ID : S_HDMV/PGS

Codec ID/Info : Picture based subtitle format used on BDs/HD-DVDs

Duration : 1 h 40 min

Bit rate : 17.3 kb/s

Count of elements : 1712

Stream size : 12.5 MiB (0%)

Language : Chinese

Default : No

Forced : No

Text #6

ID : 8

Format : PGS

Muxing mode : zlib

Codec ID : S_HDMV/PGS

Codec ID/Info : Picture based subtitle format used on BDs/HD-DVDs

Duration : 1 h 28 min

Bit rate : 249 b/s

Count of elements : 16

Stream size : 163 KiB (0%)

Language : French

Default : No

Forced : No

Text #7

ID : 9

Format : PGS

Muxing mode : zlib

Codec ID : S_HDMV/PGS

Codec ID/Info : Picture based subtitle format used on BDs/HD-DVDs

Duration : 1 h 42 min

Bit rate : 73.0 kb/s

Count of elements : 3539

Stream size : 53.4 MiB (1%)

Language : English

Default : No

Forced : No

Text #8

ID : 10

Format : PGS

Muxing mode : zlib

Codec ID : S_HDMV/PGS

Codec ID/Info : Picture based subtitle format used on BDs/HD-DVDs

Duration : 1 h 47 min

Bit rate : 62.9 kb/s

Count of elements : 3349

Stream size : 48.2 MiB (1%)

Language : English

Default : No

Forced : No

Text #9

ID : 11

Format : PGS

Muxing mode : zlib

Codec ID : S_HDMV/PGS

Codec ID/Info : Picture based subtitle format used on BDs/HD-DVDs

Duration : 1 h 29 min

Bit rate : 12.7 kb/s

Count of elements : 502

Stream size : 8.16 MiB (0%)

Language : English

Default : No

Forced : No

Text #10

ID : 12

Format : PGS

Muxing mode : zlib

Codec ID : S_HDMV/PGS

Codec ID/Info : Picture based subtitle format used on BDs/HD-DVDs

Duration : 1 h 42 min

Bit rate : 19.3 kb/s

Count of elements : 939

Stream size : 14.1 MiB (0%)

Language : English

Default : No

Forced : No

Text #11

ID : 13

Format : PGS

Muxing mode : zlib

Codec ID : S_HDMV/PGS

Codec ID/Info : Picture based subtitle format used on BDs/HD-DVDs

Duration : 1 h 29 min

Bit rate : 2 305 b/s

Count of elements : 117

Stream size : 1.48 MiB (0%)

Language : English

Default : No

Forced : No

Menu

00:00:00.000 : en:My Son

00:03:21.201 : en:Main Titles/Invincible Warriors

00:07:49.010 : en:Recruitment

00:10:28.419 : en:Special Team

00:14:09.807 : en:Enough!

00:17:50.110 : en:New Life

00:19:31.503 : en:Show’s Over

00:25:55.136 : en:Powers of Persuasion

00:28:17.987 : en:The Moon and Her Lover

00:32:28.571 : en:Out For Blood

00:37:51.310 : en:Weapon X

00:45:03.367 : en:Kindness to Strangers

00:49:43.647 : en:Blow Him to Bits

00:56:28.468 : en:Our Own Kind

00:59:41.828 : en:Boxing With the Blob

01:02:17.650 : en:Mutant Capture

01:06:12.176 : en:Gambit

01:09:54.523 : en:Confronting Victor

01:12:54.703 : en:Preemptive Action

01:16:19.741 : en:Played for a Fool

01:21:29.467 : en:Animal Rage

01:25:57.777 : en:Weapon XI

01:28:55.121 : en:Common Enemy

01:32:06.812 : en:Always Brothers

01:33:37.069 : en:Point Blank

01:37:15.538 : en:What’s My Name?

01:40:22.141 : en:End Titles/Under Arrest

01:41:26.121 : en:End Titles/Back From the Dead

01:47:21.143 : en:01:47:21.143

Source:

Remux 19.5 GB

X-Men Origins: Wolverine (200Download Torrent Magnet

#XMen #Origins #Wolverine