Wrong.Turn.2021.BRRip.XviD.MP Full Torrent Magnet Download

Download Torrent Wrong.Turn.2021.BRRip.XviD.MP Movie Full in HD Result. Movie Wrong.Turn.2021.BRRip.XviD.MP Torrent Download full. Movie Wrong.Turn.2021.BRRip.XviD.MP torrent Magnet Download Full. Wrong.Turn.2021.BRRip.XviD.MP Full Movie Torrent Download And Magnet Download For your PC And Mobiles. Latest Movie Wrong.Turn.2021.BRRip.XviD.MP Download Link In Bottom.

Torrent And Magnet Links Below

Video

ID : 0

Format : MPEG-4 Visual

Format profile : [email protected]
Format settings, BVOP : No

Format settings, QPel : No

Format settings, GMC : No warppoints

Format settings, Matrix : Default (H.263)

Codec ID : XVID

Codec ID/Hint : XviD

Duration : 1 h 50 min

Bit rate : 1 596 kb/s

Width : 720 pixels

Height : 304 pixels

Display aspect ratio : 2.40:1

Original display aspect ratio : 2.40:1

Frame rate : 23.976 (24000/1001) FPS

Color space : YUV

Chroma subsampling : 4:2:0

Bit depth : 8 bits

Scan type : Progressive

Compression mode : Lossy

Bits/(Pixel*Frame) : 0.304

Stream size : 1.23 GiB (89%)

Title : RARBG – Wrong.Turn.2021.BRRip.XviD.MP3-XVID

Writing library : Lavc58.35.100

Audio

ID : 1

Format : MPEG Audio

Format version : Version 1

Format profile : Layer 3

Format settings : Joint stereo

Codec ID : 55

Codec ID/Hint : MP3

Duration : 1 h 50 min

Bit rate mode : Constant

Bit rate : 192 kb/s

Channel(s) : 2 channels

Sampling rate : 48.0 kHz

Compression mode : Lossy

Stream size : 151 MiB (11%)

Alignment : Aligned on interleaves

Interleave, duration : 24 ms (0.58 video frame)

Interleave, preload duration : 24 ms

Title : RARBG – Wrong.Turn.2021.BRRip.XviD.MP3-XVID

Writing library : LAME3.99.5

Wrong.Turn.2021.BRRip.XviD.MPDownload Torrent Magnet

#WrongTurn2021BRRipXviDMP