Wrong.Turn.2021.BRRip.XviD.B4 Full Torrent Magnet Download

Download Torrent Wrong.Turn.2021.BRRip.XviD.B4 Movie Full in HD Result. Movie Wrong.Turn.2021.BRRip.XviD.B4 Torrent Download full. Movie Wrong.Turn.2021.BRRip.XviD.B4 torrent Magnet Download Full. Wrong.Turn.2021.BRRip.XviD.B4 Full Movie Torrent Download And Magnet Download For your PC And Mobiles. Latest Movie Wrong.Turn.2021.BRRip.XviD.B4 Download Link In Bottom.

Torrent And Magnet Links Below

Wrong.Turn.2021.BRRip.XviD.B4ND1T69

Director: Mike P. Nelson

Writers: Alan B. McElroy (as Alan McElroy), Alan B. McElroy (characters)

Stars: Matthew Modine, Emma Dumont, Charlotte Vega

Plot/Story:

Friends hiking the Appalachian Trail are confronted by ‘The Foundation’, a community of people who have lived in the mountains for hundreds of years.

General

Complete name : Wrong.Turn.2021.BRRip.XviD.B4ND1T69.avi

Format : AVI

Format/Info : Audio Video Interleave

File size : 1.21 GiB

Duration : 1 h 50 min

Overall bit rate : 1 576 kb/s

Subtitles : Yes…Included(HI)

Video

ID : 0

Format : MPEG-4 Visual

Format profile : Advanced [email protected]
Format settings, BVOP : 2

Format settings, QPel : No

Format settings, GMC : No warppoints

Format settings, Matrix : Default (H.263)

Codec ID : XVID

Codec ID/Hint : XviD

Duration : 1 h 50 min

Bit rate : 1 435 kb/s

Width : 720 pixels

Height : 304 pixels

Display aspect ratio : 2.35:1

Frame rate : 23.976 (24000/1001) FPS

Color space : YUV

Chroma subsampling : 4:2:0

Bit depth : 8 bits

Scan type : Progressive

Compression mode : Lossy

Bits/(Pixel*Frame) : 0.273

Stream size : 1.10 GiB (91%)

Writing library : XviD 64

Audio

ID : 1

Format : MPEG Audio

Format version : Version 1

Format profile : Layer 3

Codec ID : 55

Codec ID/Hint : MP3

Duration : 1 h 50 min

Bit rate mode : Constant

Bit rate : 128 kb/s

Channel(s) : 2 channels

Sampling rate : 48.0 kHz

Compression mode : Lossy

Stream size : 101 MiB (8%)

Alignment : Aligned on interleaves

Interleave, duration : 24 ms (0.58 video frame)

Screenshots:









Please Seed For As Long As Possible

Or At Least 1:1 Ratio…Thanks

Enjoy Peeps

Wrong.Turn.2021.BRRip.XviD.B4Download Torrent Magnet

#WrongTurn2021BRRipXviDB4