Wrong.Turn.2021.720p.BRRip.Xv Full Torrent Magnet Download

Download Torrent Wrong.Turn.2021.720p.BRRip.Xv Movie Full in HD Result. Movie Wrong.Turn.2021.720p.BRRip.Xv Torrent Download full. Movie Wrong.Turn.2021.720p.BRRip.Xv torrent Magnet Download Full. Wrong.Turn.2021.720p.BRRip.Xv Full Movie Torrent Download And Magnet Download For your PC And Mobiles. Latest Movie Wrong.Turn.2021.720p.BRRip.Xv Download Link In Bottom.

Torrent And Magnet Links Below

Video

ID : 0

Format : MPEG-4 Visual

Format profile : [email protected]
Format settings, BVOP : No

Format settings, QPel : No

Format settings, GMC : No warppoints

Format settings, Matrix : Default (H.263)

Codec ID : XVID

Codec ID/Hint : XviD

Duration : 1 h 50 min

Bit rate : 3 791 kb/s

Width : 1 280 pixels

Height : 538 pixels

Display aspect ratio : 2.40:1

Frame rate : 23.976 (24000/1001) FPS

Color space : YUV

Chroma subsampling : 4:2:0

Bit depth : 8 bits

Scan type : Progressive

Compression mode : Lossy

Bits/(Pixel*Frame) : 0.230

Stream size : 2.92 GiB (85%)

Writing library : Lavc58.35.100

Audio

ID : 1

Format : AC-3

Format/Info : Audio Coding 3

Commercial name : Dolby Digital

Codec ID : 2000

Duration : 1 h 50 min

Bit rate mode : Constant

Bit rate : 640 kb/s

Channel(s) : 6 channels

Channel layout : L R C LFE Ls Rs

Sampling rate : 48.0 kHz

Frame rate : 31.250 FPS (1536 SPF)

Compression mode : Lossy

Stream size : 505 MiB (14%)

Alignment : Aligned on interleaves

Interleave, duration : 42 ms (1.00 video frame)

Interleave, preload duration : 512 ms

Service kind : Complete Main

Wrong.Turn.2021.720p.BRRip.XvDownload Torrent Magnet

#WrongTurn2021720pBRRipXv