Wrong.Turn.2021.720p.BluRay.x Full Torrent Magnet Download

Download Torrent Wrong.Turn.2021.720p.BluRay.x Movie Full in HD Result. Movie Wrong.Turn.2021.720p.BluRay.x Torrent Download full. Movie Wrong.Turn.2021.720p.BluRay.x torrent Magnet Download Full. Wrong.Turn.2021.720p.BluRay.x Full Movie Torrent Download And Magnet Download For your PC And Mobiles. Latest Movie Wrong.Turn.2021.720p.BluRay.x Download Link In Bottom.

Torrent And Magnet Links Below

Video

ID : 1

Format : AVC

Format/Info : Advanced Video Codec

Format profile : [email protected]
Format settings : CABAC / 12 Ref Frames

Format settings, CABAC : Yes

Format settings, Reference frames : 12 frames

Codec ID : V_MPEG4/ISO/AVC

Duration : 1 h 50 min

Bit rate : 6 606 kb/s

Width : 1 280 pixels

Height : 540 pixels

Display aspect ratio : 2.40:1

Frame rate mode : Constant

Frame rate : 23.976 (24000/1001) FPS

Color space : YUV

Chroma subsampling : 4:2:0

Bit depth : 8 bits

Scan type : Progressive

Bits/(Pixel*Frame) : 0.399

Stream size : 5.09 GiB (81%)

Writing library : x264 core 157 r2938 2b00a84 [email protected] Mod

Encoding settings : cabac=1 / ref=12 / deblock=1:-3:-3 / analyse=0x3:0x133 / me=umh / subme=10 / psy=1 / psy_rd=1.05:0.00 / mixed_ref=1 / me_range=32 / chroma_me=1 / trellis=2 / 8x8dct=1 / cqm=0 / deadzone=21,11 / fast_pskip=0 / chroma_qp_offset=-2 / threads=12 / lookahead_threads=2 / sliced_threads=0 / nr=0 / decimate=0 / interlaced=0 / bluray_compat=0 / constrained_intra=0 / bframes=8 / b_pyramid=2 / b_adapt=2 / b_bias=0 / direct=3 / weightb=1 / open_gop=0 / weightp=2 / keyint=250 / keyint_min=24 / scenecut=40 / intra_refresh=0 / rc_lookahead=250 / rc=crf / mbtree=0 / crf=16.8 / qcomp=0.60 / qpmin=0 / qpmax=69 / qpstep=4 / vbv_maxrate=62500 / vbv_bufsize=78125 / crf_max=0.0 / nal_hrd=none / filler=0 / ip_ratio=1.30 / pb_ratio=1.20 / aq=3:0.80

Language : English

Default : Yes

Forced : No

Color range : Limited

Color primaries : BT.709

Matrix coefficients : BT.709

Audio

ID : 2

Format : DTS

Format/Info : Digital Theater Systems

Codec ID : A_DTS

Duration : 1 h 50 min

Bit rate mode : Constant

Bit rate : 1 509 kb/s

Channel(s) : 6 channels

Channel layout : C L R Ls Rs LFE

Sampling rate : 48.0 kHz

Frame rate : 93.750 FPS (512 SPF)

Bit depth : 24 bits

Compression mode : Lossy

Stream size : 1.16 GiB (19%)

Language : English

Default : Yes

Forced : No

Text

ID : 3

Format : UTF-8

Codec ID : S_TEXT/UTF8

Codec ID/Info : UTF-8 Plain Text

Duration : 1 h 46 min

Bit rate : 44 b/s

Count of elements : 1296

Stream size : 34.9 KiB (0%)

Language : English

Default : Yes

Forced : No

Menu

00:00:00.000 : en:Chapter 01

00:05:22.364 : en:Chapter 02

00:14:39.170 : en:Chapter 03

00:20:43.826 : en:Chapter 04

00:25:05.129 : en:Chapter 05

00:32:36.538 : en:Chapter 06

00:39:30.952 : en:Chapter 07

00:44:12.859 : en:Chapter 08

00:48:35.329 : en:Chapter 09

00:58:29.381 : en:Chapter 10

01:06:07.172 : en:Chapter 11

01:14:34.970 : en:Chapter 12

01:22:48.130 : en:Chapter 13

01:29:33.535 : en:Chapter 14

01:38:13.346 : en:Chapter 15

01:43:54.061 : en:Chapter 16

Wrong.Turn.2021.720p.BluRay.xDownload Torrent Magnet

#WrongTurn2021720pBluRayx