Wrath.of.Man.2021.2160p.AMZN. Full Torrent Magnet Download

Download Torrent Wrath.of.Man.2021.2160p.AMZN. Movie Full in HD Result. Movie Wrath.of.Man.2021.2160p.AMZN. Torrent Download full. Movie Wrath.of.Man.2021.2160p.AMZN. torrent Magnet Download Full. Wrath.of.Man.2021.2160p.AMZN. Full Movie Torrent Download And Magnet Download For your PC And Mobiles. Latest Movie Wrath.of.Man.2021.2160p.AMZN. Download Link In Bottom.

Torrent And Magnet Links Below

Code:

Video

ID : 1

Format : HEVC

Format/Info : High Efficiency Video Coding

Format profile : Main [email protected]@Main

HDR format : SMPTE ST 2094 App 4, Version 1, HDR10+ Profile B compatible

Codec ID : V_MPEGH/ISO/HEVC

Duration : 1 h 58 min

Bit rate : 14.9 Mb/s

Width : 3 840 pixels

Height : 1 600 pixels

Display aspect ratio : 2.40:1

Frame rate mode : Constant

Frame rate : 23.976 (24000/1001) FPS

Color space : YUV

Chroma subsampling : 4:2:0

Bit depth : 10 bits

Bits/(Pixel*Frame) : 0.101

Stream size : 12.4 GiB (96%)

Default : Yes

Forced : No

Color range : Limited

Color primaries : BT.2020

Transfer characteristics : PQ

Matrix coefficients : BT.2020 non-constant

Mastering display color primaries : BT.2020

Mastering display luminance : min: 0.0050 cd/m2, max: 1000 cd/m2

Maximum Content Light Level : 717 cd/m2

Maximum Frame-Average Light Level : 194 cd/m2

Audio

ID : 2

Format : E-AC-3

Format/Info : Enhanced AC-3

Commercial name : Dolby Digital Plus

Codec ID : A_EAC3

Duration : 1 h 58 min

Bit rate mode : Constant

Bit rate : 640 kb/s

Channel(s) : 6 channels

Channel layout : L R C LFE Ls Rs

Sampling rate : 48.0 kHz

Frame rate : 31.250 FPS (1536 SPF)

Compression mode : Lossy

Stream size : 544 MiB (4%)

Title : English

Language : English

Service kind : Complete Main

Default : No

Forced : No

Text #1

ID : 3

Format : UTF-8

Codec ID : S_TEXT/UTF8

Codec ID/Info : UTF-8 Plain Text

Duration : 1 h 50 min

Bit rate : 70 b/s

Count of elements : 1990

Stream size : 56.8 KiB (0%)

Title : English [SDH]
Language : English

Default : No

Forced : No

Text #2

ID : 4

Format : UTF-8

Codec ID : S_TEXT/UTF8

Codec ID/Info : UTF-8 Plain Text

Duration : 1 h 50 min

Bit rate : 63 b/s

Count of elements : 1792

Stream size : 51.5 KiB (0%)

Title : English

Language : English

Default : No

Forced : No

Wrath.of.Man.2021.2160p.AMZN.Download Torrent Magnet

#WrathofMan20212160pAMZN