Wonder.Woman.1984.ITA.ENG.202 Full Torrent Magnet Download

Download Torrent Wonder.Woman.1984.ITA.ENG.202 Movie Full in HD Result. Movie Wonder.Woman.1984.ITA.ENG.202 Torrent Download full. Movie Wonder.Woman.1984.ITA.ENG.202 torrent Magnet Download Full. Wonder.Woman.1984.ITA.ENG.202 Full Movie Torrent Download And Magnet Download For your PC And Mobiles. Latest Movie Wonder.Woman.1984.ITA.ENG.202 Download Link In Bottom.

Torrent And Magnet Links Below


Wonder.Woman.1984.ITA.ENG.2020.HDR.2160p.WEB.H265-MeM


Genere: Azione, Avventura, Fantasy

Anno: 2020

Regia: Patty Jenkins

Attori: Gal Gadot, Kristen Wiig, Pedro Pascal, Chris Pine, Connie Nielsen, Robin Wright, Gabriella Wilde, Kristoffer Polaha, Ravi Patel

Paese: USA

Durata: 155 min

Distribuzione: Warner Bros. Italia

Sceneggiatura: Patty Jenkins, Geoff Johns

Fotografia: Matthew Jensen

Montaggio: Richard Pearson

Produzione: DC Entertainment, Warner Bros.

Trama:
Wonder Woman 1984, film diretto da Patty Jenkins, è il sequel del primo Wonder Woman ed è ambientato durante gli anni ’80, in piena Guerra Fredda. Diana Prince (Gal Gadot) è una spia del governo americano sulle tracce di un’altra spia sovietica, Barbara Ann Minerva, nota come Cheetah (Kristen Wiig), trascinata sulla via del male dalla parte di sé più “bestiale”. Ma quest’ultima non è l’unico nemico che Wonder Woman deve affrontare, infatti dovrà fare i conti anche con il perfido e potente uomo d’affari Maxwell Lord interpretato da Pedro Pascal.

Accanto all’eroina amazzone ancora una volta Chris Pine nei panni di Steve Trevor.




Sorgente Video: Wonder.Woman.1984.2020.PROPER.HDR.2160p.WEB.h265-KOGi

Sorgente Audio: Amazon
Risoluzione: 3840×2160, x265

Audio 1: ITA EAC-3 6ch @640 kb/s

Audio 2: ITA AC-3 6ch @640 kb/s

Audio 2: ENG EAC-3 6ch @640 kb/s

Sottotitoli: ITA FULL, ITA FORCED, ENG FULL, ENG FORCED

Code:


Wonder.Woman.1984.ITA.ENG.2020.HDR.2160p.WEB.H265-MeM.mkv

Format : Matroska

Format version : Version 4 / Version 2

File size : 21.1 GiB

Duration : 2h 31mn

Overall bit rate : 20.0 Mbps

Encoded date : UTC 2021-02-12 00:25:00

Writing application : mkvmerge v7.6.0 (‘Garden of Dreams’) 64bit built on Feb 8 2015 15:12:28

Writing library : libebml v1.3.1 + libmatroska v1.4.2

_STATISTICS_WRITING_APP : mkvmerge v7.6.0 (‘Garden of Dreams’) 64bit built on Feb 8 2015 15:12:28

_STATISTICS_TAGS : BPS DURATION NUMBER_OF_FRAMES NUMBER_OF_BYTES

DURATION : 02:31:05.152000000

NUMBER_OF_FRAMES : 283286

NUMBER_OF_BYTES : 725212160

_STATISTICS_WRITING_DATE_UTC : 2021-02-12 00:25:00

Video

ID : 1

Format : V_MPEGH/ISO/HEVC

Codec ID : V_MPEGH/ISO/HEVC

Duration : 2h 31mn

Bit rate : 17.5 Mbps

Width : 3 840 pixels

Height : 2 160 pixels

Display aspect ratio : 16:9

Frame rate : 23.976 fps

Bits/(Pixel*Frame) : 0.088

Stream size : 18.5 GiB (88%)

Language : English

Default : Yes

Forced : No

Audio #1

ID : 2

Format : E-AC-3

Format/Info : Audio Coding 3

Codec ID : A_EAC3

Duration : 2h 31mn

Bit rate mode : Constant

Bit rate : 640 Kbps

Channel(s) : 6 channels

Channel positions : Front: L C R, Side: L R, LFE

Sampling rate : 48.0 KHz

Compression mode : Lossy

Stream size : 692 MiB (3%)

Title : ITA EAC3 6ch @640kb/s

Language : Italian

Default : Yes

Forced : No

Audio #2

ID : 3

Format : AC-3

Format/Info : Audio Coding 3

Mode extension : CM (complete main)

Codec ID : A_AC3

Duration : 2h 31mn

Bit rate mode : Constant

Bit rate : 640 Kbps

Channel(s) : 6 channels

Channel positions : Front: L C R, Side: L R, LFE

Sampling rate : 48.0 KHz

Bit depth : 16 bits

Compression mode : Lossy

Stream size : 692 MiB (3%)

Title : ITA AC3 6ch @640kb/s

Language : Italian

Default : No

Forced : No

Audio #3

ID : 4

Format : E-AC-3

Format/Info : Audio Coding 3

Codec ID : A_EAC3

Duration : 2h 31mn

Bit rate mode : Constant

Bit rate : 768 Kbps

Channel(s) : 6 channels

Channel positions : Front: L C R, Side: L R, LFE

Sampling rate : 48.0 KHz

Compression mode : Lossy

Stream size : 830 MiB (4%)

Title : ENG EAC3 6ch @640kb/s

Language : English

Default : No

Forced : No

Text #1

ID : 5

Format : UTF-8

Codec ID : S_TEXT/UTF8

Codec ID/Info : UTF-8 Plain Text

Title : Forced

Language : Italian

Default : Yes

Forced : Yes

Text #2

ID : 6

Format : UTF-8

Codec ID : S_TEXT/UTF8

Codec ID/Info : UTF-8 Plain Text

Language : Italian

Default : No

Forced : No

Text #3

ID : 7

Format : UTF-8

Codec ID : S_TEXT/UTF8

Codec ID/Info : UTF-8 Plain Text

Title : English (SDH)

Language : English

Default : No

Forced : No

[center] [center]

Wonder.Woman.1984.ITA.ENG.202Download Torrent Magnet

#WonderWoman1984ITAENG202