Wonder Woman 1984 (2020) IMAX Full Torrent Magnet Download

Download Torrent Wonder Woman 1984 (2020) IMAX Movie Full in HD Result. Movie Wonder Woman 1984 (2020) IMAX Torrent Download full. Movie Wonder Woman 1984 (2020) IMAX torrent Magnet Download Full. Wonder Woman 1984 (2020) IMAX Full Movie Torrent Download And Magnet Download For your PC And Mobiles. Latest Movie Wonder Woman 1984 (2020) IMAX Download Link In Bottom.

Torrent And Magnet Links Below

A new era of wonder begins…

Wonder Woman 1984 (2020) IMAX 1080p 10bit Bluray x265 HEVC [Org UHD BD 5.1 Hindi + DD 5.1 English] MSubs ~ TombDoc

Code:

Format                                   : Matroska

Format version                           : Version 4

File size                                : 5.38 GiB

Duration                                 : 2 h 31 min

Overall bit rate                         : 5 101 kb/s

Video

ID                                       : 1

Format                                   : HEVC

Format/Info                              : High Efficiency Video Coding

Format profile                           : Main [email protected]@Main

Codec ID                                 : V_MPEGH/ISO/HEVC

Duration                                 : 2 h 31 min

Bit rate                                 : 4 000 kb/s

Width                                    : 1 920 pixels

Height                                   : 1 012 pixels

Display aspect ratio                     : 1.897

Frame rate mode                          : Constant

Frame rate                               : 23.976 (24000/1001) FPS

Color space                              : YUV

Chroma subsampling                       : 4:2:0

Bit depth                                : 10 bits

Bits/(Pixel*Frame)                       : 0.086

Stream size                              : 4.22 GiB (78%)

Writing library                          : x265 3.4+70-90fa80a85:[DJATOM’s Mod][Windows][GCC 10.2.1][64 bit] 10bit

Encoding settings                        : cpuid=1111039 / frame-threads=4 / numa-pools=24 / wpp / no-pmode / no-pme / no-psnr / no-ssim / log-level=2 / input-csp=1 / input-res=1920×1012 / interlace=0 / total-frames=217408 / level-idc=0 / high-tier=1 / uhd-bd=0 / ref=5 / no-allow-non-conformance / no-repeat-headers / annexb / no-aud / no-hrd / info / hash=0 / no-temporal-layers / open-gop / min-keyint=23 / keyint=250 / gop-lookahead=0 / bframes=8 / b-adapt=2 / b-pyramid / bframe-bias=0 / rc-lookahead=100 / lookahead-slices=4 / scenecut=40 / hist-scenecut=0 / radl=0 / no-splice / no-intra-refresh / ctu=64 / min-cu-size=8 / rect / amp / max-tu-size=32 / tu-inter-depth=2 / tu-intra-depth=2 / limit-tu=1 / rdoq-level=2 / dynamic-rd=0.00 / ssim-rd / signhide / no-tskip / nr-intra=0 / nr-inter=0 / no-constrained-intra / strong-intra-smoothing / max-merge=5 / limit-refs=3 / limit-modes / me=3 / subme=6 / merange=57 / temporal-mvp / no-frame-dup / no-hme / weightp / no-weightb / no-analyze-src-pics / deblock=0:0 / sao / no-sao-non-deblock / rd=4 / selective-sao=4 / no-early-skip / rskip / no-fast-intra / no-tskip-fast / no-cu-lossless / no-b-intra / no-splitrd-skip / rdpenalty=0 / psy-rd=0.00 / psy-rdoq=2.00 / no-rd-refine / no-lossless / cbqpoffs=0 / crqpoffs=0 / rc=abr / bitrate=4000 / qcomp=0.60 / qpstep=4 / stats-write=0 / stats-read=2 / cplxblur=20.0 / qblur=0.5 / ipratio=1.40 / pbratio=1.30 / aq-mode=4 / aq-strength=1.00 / cutree / zone-count=0 / no-strict-cbr / qg-size=32 / rc-grain / qpmax=69 / qpmin=0 / no-const-vbv / sar=0 / overscan=0 / videoformat=5 / range=0 / colorprim=2 / transfer=2 / colormatrix=2 / chromaloc=0 / display-window=0 / cll=0,0 / min-luma=0 / max-luma=1023 / log2-max-poc-lsb=8 / vui-timing-info / vui-hrd-info / slices=1 / no-opt-qp-pps / no-opt-ref-list-length-pps / no-multi-pass-opt-rps / scenecut-bias=0.05 / hist-threshold=0.01 / no-opt-cu-delta-qp / aq-motion / no-hdr10 / no-hdr10-opt / no-dhdr10-opt / no-idr-recovery-sei / analysis-reuse-level=0 / analysis-save-reuse-level=0 / analysis-load-reuse-level=0 / scale-factor=0 / refine-intra=0 / refine-inter=0 / refine-mv=1 / refine-ctu-distortion=0 / no-limit-sao / ctu-info=0 / no-lowpass-dct / refine-analysis-type=0 / copy-pic=1 / max-ausize-factor=1.0 / no-dynamic-refine / no-single-sei / hevc-aq / no-svt / no-field / qp-adaptation-range=1.00 / no-scenecut-aware-qpconformance-window-offsets / right=0 / bottom=0 / decoder-max-rate=0 / no-vbv-live-multi-pass

Default                                  : Yes

Forced                                   : No

Audio #1

ID                                       : 2

Format                                   : AC-3

Format/Info                              : Audio Coding 3

Commercial name                          : Dolby Digital

Codec ID                                 : A_AC3

Duration                                 : 2 h 31 min

Bit rate mode                            : Constant

Bit rate                                 : 448 kb/s

Channel(s)                               : 6 channels

Channel layout                           : L R C LFE Ls Rs

Sampling rate                            : 48.0 kHz

Frame rate                               : 31.250 FPS (1536 SPF)

Compression mode                         : Lossy

Stream size                              : 484 MiB (9%)

Title                                    : Org UHD BD 5.1 448Kbps ~ TombDoc

Language                                 : Hindi

Service kind                             : Complete Main

Default                                  : Yes

Forced                                   : Yes

Audio #2

ID                                       : 3

Format                                   : E-AC-3

Format/Info                              : Enhanced AC-3

Commercial name                          : Dolby Digital Plus

Codec ID                                 : A_EAC3

Duration                                 : 2 h 31 min

Bit rate mode                            : Constant

Bit rate                                 : 640 kb/s

Channel(s)                               : 6 channels

Channel layout                           : L R C LFE Ls Rs

Sampling rate                            : 48.0 kHz

Frame rate                               : 31.250 FPS (1536 SPF)

Compression mode                         : Lossy

Stream size                              : 692 MiB (13%)

Title                                    : DD+ 5.1 English

Language                                 : English

Service kind                             : Complete Main

Default                                  : No

Forced                                   : No

Text #1

ID                                       : 4

Format                                   : PGS

Muxing mode                              : zlib

Codec ID                                 : S_HDMV/PGS

Codec ID/Info                            : Picture based subtitle format used on BDs/HD-DVDs

Duration                                 : 2 h 15 min

Bit rate                                 : 378 b/s

Count of elements                        : 64

Stream size                              : 376 KiB (0%)

Title                                    : Hinid BD-PGS {Forced}

Language                                 : Hindi

Default                                  : Yes

Forced                                   : Yes

Text #2

ID                                       : 5

Format                                   : PGS

Muxing mode                              : zlib

Codec ID                                 : S_HDMV/PGS

Codec ID/Info                            : Picture based subtitle format used on BDs/HD-DVDs

Duration                                 : 2 h 26 min

Bit rate                                 : 34.0 kb/s

Count of elements                        : 4360

Stream size                              : 35.7 MiB (1%)

Title                                    : Eng BD-PGS-SDH

Language                                 : English

Default                                  : No

Forced                                   : No

Text #3

ID                                       : 6

Format                                   : PGS

Muxing mode                              : zlib

Codec ID                                 : S_HDMV/PGS

Codec ID/Info                            : Picture based subtitle format used on BDs/HD-DVDs

Duration                                 : 1 h 59 min

Bit rate                                 : 504 b/s

Count of elements                        : 44

Stream size                              : 443 KiB (0%)

Title                                    : Tamil BD-PGS {Forced}

Language                                 : Tamil

Default                                  : No

Forced                                   : No

Text #4

ID                                       : 7

Format                                   : PGS

Muxing mode                              : zlib

Codec ID                                 : S_HDMV/PGS

Codec ID/Info                            : Picture based subtitle format used on BDs/HD-DVDs

Duration                                 : 1 h 59 min

Bit rate                                 : 378 b/s

Count of elements                        : 44

Stream size                              : 333 KiB (0%)

Title                                    : Telugu BD-PGS {Forced}

Language                                 : Telugu

Default                                  : No

Forced                                   : No

Menu

00:00:00.000                             : en:Chapter 1

00:03:16.988                             : en:Chapter 2

00:11:18.303                             : en:Chapter 3

00:19:52.900                             : en:Chapter 4

00:29:11.041                             : en:Chapter 5

00:35:24.748                             : en:Chapter 6

00:41:06.798                             : en:Chapter 7

00:50:23.938                             : en:Chapter 8

00:57:08.467                             : en:Chapter 9

01:06:54.010                             : en:Chapter 10

01:16:48.813                             : en:Chapter 11

01:20:00.963                             : en:Chapter 12

01:28:58.208                             : en:Chapter 13

01:37:30.970                             : en:Chapter 14

01:46:59.955                             : en:Chapter 15

01:54:54.429                             : en:Chapter 16

02:00:30.932                             : en:Chapter 17

02:05:29.063                             : en:Chapter 18

02:11:21.665                             : en:Chapter 19

02:20:21.830                             : en:Chapter 20

02:25:35.435                             : en:Chapter 21

Code:

Source: Wonder Woman 1984 2020 1080p Blu-ray AVC TrueHD 7.1-CYBER

EnjoYy the Quality…

Wonder Woman 1984 (2020) IMAXDownload Torrent Magnet

#Woman #IMAX