Wonder Woman 1984 (2020) IMAX Full Torrent Magnet Download

Download Torrent Wonder Woman 1984 (2020) IMAX Movie Full in HD Result. Movie Wonder Woman 1984 (2020) IMAX Torrent Download full. Movie Wonder Woman 1984 (2020) IMAX torrent Magnet Download Full. Wonder Woman 1984 (2020) IMAX Full Movie Torrent Download And Magnet Download For your PC And Mobiles. Latest Movie Wonder Woman 1984 (2020) IMAX Download Link In Bottom.

Torrent And Magnet Links Below

Wonder Woman 1984 (2020) IMAX 1080p BluRay x264 Dual Audio [Hindi BD DD5.1-English DD5.1] MSUBS-Ranvijay

General

Format                                   : Matroska

Format version                           : Version 4

File size                                : 6.44 GiB

Duration                                 : 2 h 31 min

Overall bit rate                         : 6 099 kb/s

Movie name                               : Wonder Woman 1984 (2020) IMAX 1080p BluRay x264 Dual Audio [Hindi BD DD5.1-English DD5.1] MSUBS-Ranvijay

Video

ID                                       : 1

Format                                   : AVC

Format/Info                              : Advanced Video Codec

Format profile                           : [email protected]
Format settings                          : CABAC / 4 Ref Frames

Format settings, CABAC                   : Yes

Format settings, Reference frames        : 4 frames

Codec ID                                 : V_MPEG4/ISO/AVC

Duration                                 : 2 h 31 min

Bit rate                                 : 5 000 kb/s

Width                                    : 1 920 pixels

Height                                   : 1 014 pixels

Display aspect ratio                     : 1.893

Frame rate mode                          : Constant

Frame rate                               : 23.976 (24000/1001) FPS

Color space                              : YUV

Chroma subsampling                       : 4:2:0

Bit depth                                : 8 bits

Scan type                                : Progressive

Bits/(Pixel*Frame)                       : 0.107

Stream size                              : 5.28 GiB (82%)

Title                                    : ~Ranvijay~

Audio #1

ID                                       : 2

Format                                   : AC-3

Format/Info                              : Audio Coding 3

Commercial name                          : Dolby Digital

Codec ID                                 : A_AC3

Duration                                 : 2 h 31 min

Bit rate mode                            : Constant

Bit rate                                 : 448 kb/s

Channel(s)                               : 6 channels

Channel layout                           : L R C LFE Ls Rs

Sampling rate                            : 48.0 kHz

Frame rate                               : 31.250 FPS (1536 SPF)

Compression mode                         : Lossy

Stream size                              : 484 MiB (7%)

Title                                    : ~Ranvijay~

Language                                 : Hindi

Service kind                             : Complete Main

Default                                  : Yes

Forced                                   : Yes

Audio #2

ID                                       : 3

Format                                   : AC-3

Format/Info                              : Audio Coding 3

Commercial name                          : Dolby Digital

Codec ID                                 : A_AC3

Duration                                 : 2 h 31 min

Bit rate mode                            : Constant

Bit rate                                 : 640 kb/s

Channel(s)                               : 6 channels

Channel layout                           : L R C LFE Ls Rs

Sampling rate                            : 48.0 kHz

Frame rate                               : 31.250 FPS (1536 SPF)

Compression mode                         : Lossy

Stream size                              : 692 MiB (10%)

Title                                    : ~Ranvijay~

Language                                 : English

Service kind                             : Complete Main

Default                                  : No

Forced                                   : No

Text #1

ID                                       : 4

Format                                   : PGS

Muxing mode                              : zlib

Codec ID                                 : S_HDMV/PGS

Codec ID/Info                            : Picture based subtitle format used on BDs/HD-DVDs

Duration                                 : 2 h 26 min

Bit rate                                 : 34.0 kb/s

Count of elements                        : 4360

Stream size                              : 35.7 MiB (1%)

Title                                    : ~Ranvijay~

Language                                 : English

Default                                  : Yes

Forced                                   : Yes

Text #2

ID                                       : 5

Format                                   : PGS

Muxing mode                              : zlib

Codec ID                                 : S_HDMV/PGS

Codec ID/Info                            : Picture based subtitle format used on BDs/HD-DVDs

Duration                                 : 2 h 15 min

Bit rate                                 : 378 b/s

Count of elements                        : 64

Stream size                              : 376 KiB (0%)

Title                                    : ~Ranvijay~

Language                                 : Hindi

Default                                  : No

Forced                                   : No

Menu

00:00:00.000                             : :Chapter 01

00:03:16.988                             : :Chapter 02

00:11:18.303                             : :Chapter 03

00:19:52.900                             : :Chapter 04

00:29:11.041                             : :Chapter 05

00:35:24.748                             : :Chapter 06

00:41:06.798                             : :Chapter 07

00:50:23.938                             : :Chapter 08

00:57:08.467                             : :Chapter 09

01:06:54.010                             : :Chapter 10

01:16:48.813                             : :Chapter 11

01:20:00.963                             : :Chapter 12

01:28:58.208                             : :Chapter 13

01:37:30.970                             : :Chapter 14

01:46:59.955                             : :Chapter 15

01:54:54.429                             : :Chapter 16

02:00:30.932                             : :Chapter 17

02:05:29.063                             : :Chapter 18

02:11:21.665                             : :Chapter 19

02:20:21.830                             : :Chapter 20

02:25:35.435                             : :Chapter 21














Wonder Woman 1984 (2020) IMAXDownload Torrent Magnet

#Woman #IMAX