Wonder.Woman.1984.2020.IMAX.2 Full Torrent Magnet Download

Download Torrent Wonder.Woman.1984.2020.IMAX.2 Movie Full in HD Result. Movie Wonder.Woman.1984.2020.IMAX.2 Torrent Download full. Movie Wonder.Woman.1984.2020.IMAX.2 torrent Magnet Download Full. Wonder.Woman.1984.2020.IMAX.2 Full Movie Torrent Download And Magnet Download For your PC And Mobiles. Latest Movie Wonder.Woman.1984.2020.IMAX.2 Download Link In Bottom.

Torrent And Magnet Links Below

Code:


MediaInfo «
Video

ID : 1

Format : HEVC

Format/Info : High Efficiency Video Coding

Format profile : Main 1[email protected]@High

HDR format : SMPTE ST 2086, HDR10 compatible

Codec ID : V_MPEGH/ISO/HEVC

Duration : 2 h 31 min

Bit rate : 38.4 Mb/s

Width : 3 840 pixels

Height : 2 028 pixels

Display aspect ratio : 1.893

Frame rate mode : Constant

Frame rate : 23.976 (24000/1001) FPS

Color space : YUV

Chroma subsampling : 4:2:0 (Type 2)

Bit depth : 10 bits

Bits/(Pixel*Frame) : 0.205

Stream size : 40.5 GiB (92%)

Writing library : x265 3.4+36-5239276dd:[Windows][MSVC 1900][64 bit] 10bit

Encoding settings : cpuid=1111039 / frame-threads=6 / numa-pools=32 / wpp / no-pmode / no-pme / no-psnr / no-ssim / log-level=2 / input-csp=1 / input-res=3840×2028 / interlace=0 / total-frames=217408 / level-idc=51 / high-tier=1 / uhd-bd=0 / ref=4 / no-allow-non-conformance / repeat-headers / annexb / aud / hrd / info / hash=0 / no-temporal-layers / no-open-gop / min-keyint=23 / keyint=250 / gop-lookahead=0 / bframes=4 / b-adapt=2 / b-pyramid / bframe-bias=0 / rc-lookahead=25 / lookahead-slices=4 / scenecut=40 / hist-scenecut=0 / radl=0 / no-splice / no-intra-refresh / ctu=64 / min-cu-size=8 / rect / no-amp / max-tu-size=32 / tu-inter-depth=1 / tu-intra-depth=1 / limit-tu=0 / rdoq-level=2 / dynamic-rd=0.00 / no-ssim-rd / signhide / no-tskip / nr-intra=0 / nr-inter=0 / no-constrained-intra / no-strong-intra-smoothing / max-merge=3 / limit-refs=3 / limit-modes / me=3 / subme=3 / merange=57 / temporal-mvp / no-frame-dup / no-hme / weightp / no-weightb / no-analyze-src-pics / deblock=-3:-3 / no-sao / no-sao-non-deblock / rd=4 / selective-sao=0 / no-early-skip / rskip / no-fast-intra / no-tskip-fast / no-cu-lossless / no-b-intra / no-splitrd-skip / rdpenalty=0 / psy-rd=2.00 / psy-rdoq=1.00 / no-rd-refine / no-lossless / cbqpoffs=0 / crqpoffs=0 / rc=crf / crf=16.8 / qcomp=0.60 / qpstep=4 / stats-write=0 / stats-read=0 / vbv-maxrate=160000 / vbv-bufsize=160000 / vbv-init=0.9 / min-vbv-fullness=50.0 / max-vbv-fullness=80.0 / crf-max=0.0 / crf-min=0.0 / ipratio=1.40 / pbratio=1.30 / aq-mode=2 / aq-strength=1.00 / cutree / zone-count=0 / no-strict-cbr / qg-size=32 / no-rc-grain / qpmax=69 / qpmin=0 / no-const-vbv / sar=1 / overscan=0 / videoformat=5 / range=0 / colorprim=9 / transfer=16 / colormatrix=9 / chromaloc=1 / chromaloc-top=2 / chromaloc-bottom=2 / display-window=0 / master-display=G(13250,34500)B(7500,3000)R(34000,16000)WP(15635,16450)L(10000000,01) / cll=596,200 / min-luma=0 / max-luma=1023 / log2-max-poc-lsb=8 / vui-timing-info / vui-hrd-info / slices=1 / no-opt-qp-pps / no-opt-ref-list-length-pps / no-multi-pass-opt-rps / scenecut-bias=0.05 / hist-threshold=0.03 / no-opt-cu-delta-qp / no-aq-motion / hdr10 / hdr10-opt / no-dhdr10-opt / no-idr-recovery-sei / analysis-reuse-level=0 / analysis-save-reuse-level=0 / analysis-load-reuse-level=0 / scale-factor=0 / refine-intra=0 / refine-inter=0 / refine-mv=1 / refine-ctu-distortion=0 / no-limit-sao / ctu-info=0 / no-lowpass-dct / refine-analysis-type=0 / copy-pic=1 / max-ausize-factor=1.0 / no-dynamic-refine / no-single-sei / no-hevc-aq / no-svt / no-field / qp-adaptation-range=1.00 / scenecut-aware-qp=0conformance-window-offsets / right=0 / bottom=0 / decoder-max-rate=0 / no-vbv-live-multi-pass

Default : Yes

Forced : No

Color range : Limited

Color primaries : BT.2020

Transfer characteristics : PQ

Matrix coefficients : BT.2020 non-constant

Mastering display color primaries : Display P3

Mastering display luminance : min: 0.0001 cd/m2, max: 1000 cd/m2

Maximum Content Light Level : 596 cd/m2

Maximum Frame-Average Light Level : 200 cd/m2

Audio #1

ID : 2

Format : MLP FBA 16-ch

Format/Info : Meridian Lossless Packing FBA with 16-channel presentation

Commercial name : Dolby TrueHD with Dolby Atmos

Codec ID : A_TRUEHD

Duration : 2 h 31 min

Bit rate mode : Variable

Bit rate : 2 860 kb/s

Maximum bit rate : 4 392 kb/s

Channel(s) : 8 channels

Channel layout : L R C LFE Ls Rs Lb Rb

Sampling rate : 48.0 kHz

Frame rate : 1 200.000 FPS (40 SPF)

Compression mode : Lossless

Stream size : 3.02 GiB (7%)

Title : Surround 7.1

Language : English

Default : Yes

Forced : No

Number of dynamic objects : 11

Bed channel count : 1 channel

Bed channel configuration : LFE

Audio #2

ID : 3

Format : AC-3

Format/Info : Audio Coding 3

Commercial name : Dolby Digital

Codec ID : A_AC3

Duration : 2 h 31 min

Bit rate mode : Constant

Bit rate : 448 kb/s

Channel(s) : 6 channels

Channel layout : L R C LFE Ls Rs

Sampling rate : 48.0 kHz

Frame rate : 31.250 FPS (1536 SPF)

Compression mode : Lossy

Stream size : 484 MiB (1%)

Title : Surround 5.1

Language : English

Service kind : Complete Main

Default : No

Forced : No

Audio #3

ID : 4

Format : AAC LC

Format/Info : Advanced Audio Codec Low Complexity

Codec ID : A_AAC-2

Duration : 2 h 31 min

Bit rate : 122 kb/s

Channel(s) : 2 channels

Channel layout : L R

Sampling rate : 48.0 kHz

Frame rate : 46.875 FPS (1024 SPF)

Compression mode : Lossy

Delay relative to video : 9 ms

Stream size : 132 MiB (0%)

Title : commentary

Language : English

Default : No

Forced : No

Text #1

ID : 5

Format : PGS

Muxing mode : zlib

Codec ID : S_HDMV/PGS

Codec ID/Info : Picture based subtitle format used on BDs/HD-DVDs

Duration : 2 h 30 min

Bit rate : 22.6 kb/s

Count of elements : 3380

Stream size : 24.3 MiB (0%)

Language : French

Default : No

Forced : No

Text #2

ID : 6

Format : PGS

Muxing mode : zlib

Codec ID : S_HDMV/PGS

Codec ID/Info : Picture based subtitle format used on BDs/HD-DVDs

Duration : 2 h 26 min

Bit rate : 32.8 kb/s

Count of elements : 3282

Stream size : 34.5 MiB (0%)

Language : German

Default : No

Forced : No

Text #3

ID : 7

Format : PGS

Muxing mode : zlib

Codec ID : S_HDMV/PGS

Codec ID/Info : Picture based subtitle format used on BDs/HD-DVDs

Duration : 2 h 27 min

Bit rate : 31.5 kb/s

Count of elements : 4285

Stream size : 33.1 MiB (0%)

Language : Italian

Default : No

Forced : No

Text #4

ID : 8

Format : PGS

Muxing mode : zlib

Codec ID : S_HDMV/PGS

Codec ID/Info : Picture based subtitle format used on BDs/HD-DVDs

Duration : 2 h 30 min

Bit rate : 26.7 kb/s

Count of elements : 3700

Stream size : 28.8 MiB (0%)

Language : Spanish

Default : No

Forced : No

Menu

00:00:00.000 : en:Chapter 01

00:03:16.988 : en:Chapter 02

00:11:18.302 : en:Chapter 03

00:19:52.733 : en:Chapter 04

00:29:10.707 : en:Chapter 05

00:35:24.455 : en:Chapter 06

00:41:06.714 : en:Chapter 07

00:50:23.937 : en:Chapter 08

00:57:08.133 : en:Chapter 09

01:06:54.010 : en:Chapter 10

01:16:48.812 : en:Chapter 11

01:20:00.962 : en:Chapter 12

01:28:58.207 : en:Chapter 13

01:37:30.970 : en:Chapter 14

01:46:59.955 : en:Chapter 15

01:54:54.429 : en:Chapter 16

02:00:30.848 : en:Chapter 17

02:05:28.687 : en:Chapter 18

02:11:21.498 : en:Chapter 19

02:20:21.454 : en:Chapter 20

02:25:35.184 : en:Chapter 21

Wonder.Woman.1984.2020.IMAX.2Download Torrent Magnet

#WonderWoman19842020IMAX2