Wonder Woman 1984 (2020) (216 Full Torrent Magnet Download

Download Torrent Wonder Woman 1984 (2020) (216 Movie Full in HD Result. Movie Wonder Woman 1984 (2020) (216 Torrent Download full. Movie Wonder Woman 1984 (2020) (216 torrent Magnet Download Full. Wonder Woman 1984 (2020) (216 Full Movie Torrent Download And Magnet Download For your PC And Mobiles. Latest Movie Wonder Woman 1984 (2020) (216 Download Link In Bottom.

Torrent And Magnet Links Below

Media Information
The director used actual grainy film to shoot Wonder Woman 1984. This gives the feel, but is terribly grainy and not much detail. I ran the 4K Web-DL through the AI inference software in a process that took weeks. The results should rival or exceed the up coming UHD Blu-ray releases. — Joy

Media Information

Code:

General
Format : Matroska

Format version : Version 4 / Version 2

File size : 7.15 GiB

Duration : 2 h 31 min

Overall bit rate : 6 773 kb/s

Movie name : Wonder Woman 1984 (2020) IMAX [2160p x265 10bit Joy][UTR]
Encoded date : UTC 2021-01-28 07:48:45

Writing application : mkvmerge v52.0.0 (‘Secret For The Mad’) 64-bit

Writing library : libebml v1.4.1 + libmatroska v1.6.2

Cover : Yes

Attachments : cover.jpg

Video
ID : 1

Format : HEVC

Format/Info : High Efficiency Video Coding

Format profile : Main [email protected]@Main

Codec ID : V_MPEGH/ISO/HEVC

Duration : 2 h 31 min

Bit rate : 6 001 kb/s

Width : 3 840 pixels

Height : 2 024 pixels

Display aspect ratio : 1.897

Frame rate mode : Constant

Frame rate : 23.976 (24000/1001) FPS

Color space : YUV

Chroma subsampling : 4:2:0

Bit depth : 10 bits

Bits/(Pixel*Frame) : 0.032

Stream size : 6.33 GiB (89%)

Writing library : x265M – 3.4+28-419182243:[Windows][GCC 10.2.0][64 bit] 10bit

Encoding settings : cpuid=1111039 / frame-threads=4 / numa-pools=24 / wpp / no-pmode / no-pme / no-psnr / ssim / log-level=2 / input-csp=1 / input-res=3840×2024 / interlace=0 / total-frames=217369 / level-idc=0 / high-tier=1 / uhd-bd=0 / ref=4 / no-allow-non-conformance / no-repeat-headers / annexb / no-aud / no-hrd / info / hash=0 / no-temporal-layers / open-gop / min-keyint=23 / keyint=250 / gop-lookahead=0 / bframes=8 / b-adapt=2 / b-pyramid / bframe-bias=40 / rc-lookahead=80 / lookahead-slices=4 / scenecut=40 / hist-scenecut=0 / radl=0 / no-splice / no-intra-refresh / ctu=64 / min-cu-size=8 / rect / no-amp / max-tu-size=32 / tu-inter-depth=1 / tu-intra-depth=1 / limit-tu=0 / rdoq-level=2 / dynamic-rd=0.00 / ssim-rd / signhide / no-tskip / nr-intra=0 / nr-inter=0 / no-constrained-intra / strong-intra-smoothing / max-merge=5 / limit-refs=3 / no-limit-modes / me=3 / subme=5 / merange=57 / temporal-mvp / no-frame-dup / no-hme / weightp / no-weightb / no-analyze-src-pics / deblock=2:2 / sao / no-sao-non-deblock / rd=4 / selective-sao=4 / early-skip / rskip / no-fast-intra / no-tskip-fast / no-cu-lossless / no-b-intra / splitrd-skip / rdpenalty=0 / psy-rd=2.50 / psy-rdoq=1.50 / no-rd-refine / no-lossless / cbqpoffs=0 / crqpoffs=0 / rc=abr / bitrate=6000 / qcomp=0.60 / qpstep=4 / stats-write=0 / stats-read=2 / cplxblur=20.0 / qblur=0.5 / ipratio=1.40 / pbratio=1.30 / aq-mode=3 / aq-strength=0.30 / cutree / zone-count=0 / no-strict-cbr / qg-size=32 / no-rc-grain / qpmax=69 / qpmin=0 / no-const-vbv / sar=0 / overscan=0 / videoformat=5 / range=0 / colorprim=1 / transfer=1 / colormatrix=1 / chromaloc=0 / display-window=0 / cll=0,0 / min-luma=0 / max-luma=1023 / log2-max-poc-lsb=8 / vui-timing-info / vui-hrd-info / slices=1 / opt-qp-pps / opt-ref-list-length-pps / multi-pass-opt-rps / scenecut-bias=0.05 / hist-threshold=0.03 / no-opt-cu-delta-qp / no-aq-motion / no-hdr10 / no-hdr10-opt / no-dhdr10-opt / no-idr-recovery-sei / analysis-reuse-level=0 / analysis-save-reuse-level=0 / analysis-load-reuse-level=0 / scale-factor=0 / refine-intra=0 / refine-inter=0 / refine-mv=1 / refine-ctu-distortion=0 / no-limit-sao / ctu-info=0 / no-lowpass-dct / refine-analysis-type=0 / copy-pic=1 / max-ausize-factor=1.0 / dynamic-refine / no-single-sei / no-hevc-aq / no-svt / no-field / qp-adaptation-range=1.00 / scenecut-aware-qp / scenecut-window=500 / qp-delta-ref=5.000000 / qp-delta-nonref=6.500000conformance-window-offsets / right=0 / bottom=0 / decoder-max-rate=0 / no-vbv-live-multi-pass

Default : Yes

Forced : No

Color range : Limited

Color primaries : BT.709

Transfer characteristics : BT.709

Matrix coefficients : BT.709

Audio
ID : 2

Format : E-AC-3

Format/Info : Enhanced Audio Coding 3

Commercial name : Dolby Digital Plus with Dolby Atmos

Format settings, Endianness : Big

Codec ID : A_EAC3

Duration : 2 h 31 min

Bit rate mode : Constant

Bit rate : 768 kb/s

Channel(s) : 6 channels

Channel positions : Front: L C R, Side: L R, LFE

Sampling rate : 48.0 kHz

Frame rate : 187.500 FPS (256 spf)

Compression mode : Lossy

Stream size : 830 MiB (11%)

Language : English

Default : No

Forced : No

Subtitle #1
ID : 3

Format : UTF-8

Codec ID : S_TEXT/UTF8

Codec ID/Info : UTF-8 Plain Text

Duration : 2 h 26 min

Bit rate : 54 b/s

Count of elements : 2188

Stream size : 58.4 KiB (0%)

Title : English (SDH)

Language : English

Default : No

Forced : No

Subtitle #2
ID : 4

Format : UTF-8

Codec ID : S_TEXT/UTF8

Codec ID/Info : UTF-8 Plain Text

Duration : 2 h 27 min

Bit rate : 48 b/s

Count of elements : 2023

Stream size : 52.6 KiB (0%)

Title : Español

Language : Spanish

Default : No

Forced : No

Subtitle #3
ID : 5

Format : UTF-8

Codec ID : S_TEXT/UTF8

Codec ID/Info : UTF-8 Plain Text

Duration : 2 h 27 min

Bit rate : 70 b/s

Count of elements : 1837

Stream size : 76.1 KiB (0%)

Language : Arabic

Default : No

Forced : No

Subtitle #4
ID : 6

Format : UTF-8

Codec ID : S_TEXT/UTF8

Codec ID/Info : UTF-8 Plain Text

Duration : 2 h 27 min

Bit rate : 76 b/s

Count of elements : 1863

Stream size : 82.7 KiB (0%)

Language : Persian

Default : No

Forced : No

Subtitle #5
ID : 7

Format : UTF-8

Codec ID : S_TEXT/UTF8

Codec ID/Info : UTF-8 Plain Text

Duration : 2 h 30 min

Bit rate : 39 b/s

Count of elements : 1693

Stream size : 43.6 KiB (0%)

Language : French

Default : No

Forced : No

Subtitle #6
ID : 8

Format : UTF-8

Codec ID : S_TEXT/UTF8

Codec ID/Info : UTF-8 Plain Text

Duration : 2 h 27 min

Bit rate : 52 b/s

Count of elements : 1867

Stream size : 56.6 KiB (0%)

Language : German

Default : No

Forced : No

Subtitle #7
ID : 9

Format : UTF-8

Codec ID : S_TEXT/UTF8

Codec ID/Info : UTF-8 Plain Text

Duration : 2 h 27 min

Bit rate : 63 b/s

Count of elements : 1825

Stream size : 68.7 KiB (0%)

Language : Hebrew

Default : No

Forced : No

Subtitle #8
ID : 10

Format : UTF-8

Codec ID : S_TEXT/UTF8

Codec ID/Info : UTF-8 Plain Text

Duration : 2 h 26 min

Bit rate : 40 b/s

Count of elements : 1866

Stream size : 44.0 KiB (0%)

Language : Indonesian

Default : No

Forced : No

Subtitle #9
ID : 11

Format : UTF-8

Codec ID : S_TEXT/UTF8

Codec ID/Info : UTF-8 Plain Text

Duration : 2 h 27 min

Bit rate : 47 b/s

Count of elements : 1866

Stream size : 51.4 KiB (0%)

Language : Italian

Default : No

Forced : No

Subtitle #10
ID : 12

Format : UTF-8

Codec ID : S_TEXT/UTF8

Codec ID/Info : UTF-8 Plain Text

Duration : 2 h 27 min

Bit rate : 75 b/s

Count of elements : 1866

Stream size : 82.0 KiB (0%)

Language : Japanese

Default : No

Forced : No

Subtitle #11
ID : 13

Format : UTF-8

Codec ID : S_TEXT/UTF8

Codec ID/Info : UTF-8 Plain Text

Duration : 2 h 27 min

Bit rate : 49 b/s

Count of elements : 1865

Stream size : 53.2 KiB (0%)

Language : Malay

Default : No

Forced : No

Subtitle #12
ID : 14

Format : UTF-8

Codec ID : S_TEXT/UTF8

Codec ID/Info : UTF-8 Plain Text

Duration : 2 h 27 min

Bit rate : 47 b/s

Count of elements : 1866

Stream size : 51.7 KiB (0%)

Language : Romanian

Default : No

Forced : No

Subtitle #13
ID : 15

Format : UTF-8

Codec ID : S_TEXT/UTF8

Codec ID/Info : UTF-8 Plain Text

Duration : 2 h 26 min

Bit rate : 44 b/s

Count of elements : 1710

Stream size : 48.3 KiB (0%)

Language : Spanish

Default : No

Forced : No

Subtitle #14
ID : 16

Format : UTF-8

Codec ID : S_TEXT/UTF8

Codec ID/Info : UTF-8 Plain Text

Duration : 2 h 27 min

Bit rate : 47 b/s

Count of elements : 1866

Stream size : 51.6 KiB (0%)

Language : Swedish

Default : No

Forced : No

Subtitle #15
ID : 17

Format : UTF-8

Codec ID : S_TEXT/UTF8

Codec ID/Info : UTF-8 Plain Text

Duration : 2 h 26 min

Bit rate : 48 b/s

Count of elements : 1714

Stream size : 52.0 KiB (0%)

Language : Turkish

Default : No

Forced : No

Subtitle #16
ID : 18

Format : UTF-8

Codec ID : S_TEXT/UTF8

Codec ID/Info : UTF-8 Plain Text

Duration : 2 h 30 min

Bit rate : 56 b/s

Count of elements : 1844

Stream size : 62.2 KiB (0%)

Language : Vietnamese

Default : No

Forced : No

Source Information

Code:

Release: Wonder Woman 1984 (2020) WEB.2160p.AI.DD+.UTR.mkv (62.97 GBs)

Code:


Note From UTR
Whilst we are happy for our releases to be re-posted on a platform we aren’t on, please do so in an ‘as-is’ format. We ask that you do not create a new torrent, include all descriptions you see above including the UTR logo, tags, notes and screenshots. If you’d like to become a permanent poster on a website we don’t post to, feel free to get in contact with a UTR member.

If possible please donate for seedboxes.

BTC – 1QA5fum5AyXvWzdVCkQzUNvw3Ef15fHRaR

Monero – 8AuksPSzY7fen3HHT1a2342PgVy4J93MKfXG3AAcayV76miTyJ3sNfn38srwrpLirGfeR5DwhTL8GW8pdQgT7bZcJ25ynMx

Dash – Xh4mNs6uwZdpCEX2HSEVwGvPD7yKxZ1Ccd

Ethereum – 0x51c06c94e74c16735a7a6e841ad29fc90a84eb1f

Wonder Woman 1984 (2020) (216Download Torrent Magnet

#Woman