Women.Of.Mafia.2.2019.BDRip.X Full Torrent Magnet Download

Download Torrent Women.Of.Mafia.2.2019.BDRip.X Movie Full in HD Result. Movie Women.Of.Mafia.2.2019.BDRip.X Torrent Download full. Movie Women.Of.Mafia.2.2019.BDRip.X torrent Magnet Download Full. Women.Of.Mafia.2.2019.BDRip.X Full Movie Torrent Download And Magnet Download For your PC And Mobiles. Latest Movie Women.Of.Mafia.2.2019.BDRip.X Download Link In Bottom.

Torrent And Magnet Links Below

Quote:

*************************************************************

******************************Thumbnbil:*********************

******************************Screenshots:********************

screenshot 1

screenshot 2

screenshot 3

screenshot 4

screenshot 5

screenshot 6

screenshot 7

screenshot 8

screenshot 9

screenshot 0

******************************************************

18+.Women.Of.Mafia.2.2019.BDRip.XviD.AC3.With.Sample.LLG.mp4

Format : MPEG-4

Format profile : Base Media

Codec ID : isom (isom/iso2/avc1/mp41)

File size : 1.03 GiB

Duration : 2 h 18 min

Overall bit rate mode : Variable

Overall bit rate : 1 070 kb/s

Writing application : Lavf57.83.100

Video

ID : 1

Format : AVC

Format/Info : Advanced Video Codec

Format profile : [email protected]
Format settings : CABAC / 1 Ref Frames

Format settings, CABAC : Yes

Format settings, Reference frames : 1 frame

Codec ID : avc1

Codec ID/Info : Advanced Video Coding

Duration : 2 h 18 min

Bit rate mode : Variable

Bit rate : 873 kb/s

Maximum bit rate : 2 700 kb/s

Width : 1 280 pixels

Height : 532 pixels

Display aspect ratio : 2.40:1

Original display aspect ratio : 2.40:1

Frame rate mode : Constant

Frame rate : 24.000 FPS

Color space : YUV

Chroma subsampling : 4:2:0

Bit depth : 8 bits

Scan type : Progressive

Bits/(Pixel*Frame) : 0.053

Stream size : 862 MiB (82%)

Codec configuration box : avcC

Audio

ID : 2

Format : AC-3

Format/Info : Audio Coding 3

Commercial name : Dolby Digital

Codec ID : ac-3

Duration : 2 h 18 min

Bit rate mode : Constant

Bit rate : 192 kb/s

Channel(s) : 2 channels

Channel layout : L R

Sampling rate : 48.0 kHz

Frame rate : 31.250 FPS (1536 SPF)

Compression mode : Lossy

Stream size : 190 MiB (18%)

Service kind : Complete Main

Default : Yes

Alternate group : 1

********************************************************

Women.Of.Mafia.2.2019.BDRip.XDownload Torrent Magnet

#WomenOfMafia22019BDRipX