Witching.&.Bitching.(2013).De Full Torrent Magnet Download

Download Torrent Witching.&.Bitching.(2013).De Movie Full in HD Result. Movie Witching.&.Bitching.(2013).De Torrent Download full. Movie Witching.&.Bitching.(2013).De torrent Magnet Download Full. Witching.&.Bitching.(2013).De Full Movie Torrent Download And Magnet Download For your PC And Mobiles. Latest Movie Witching.&.Bitching.(2013).De Download Link In Bottom.

Torrent And Magnet Links Below

Witching & Bitching (2013)

“Now for Something Completly Different” ~ Monty Python

(Spanish: Las brujas de Zugarramurdi; “The Witches of Zugarramurdi”) is a 2013 Spanish comedy horror film co-written and directed by Álex de la Iglesia. It stars Hugo Silva, Mario Casas, and Carmen Maura. It won the most awards at the 28th Goya Awards with eight wins out of ten nominations.

This film has been denoised and sharpened using the Neat Video Pro V5 plugin for VirtualDub. The hue, saturation, brightness, and contrast have been tweaked using AviSynth courtesy of RipBot264. Compression was performed using the x265 codec, two-pass encoding with the SLOWER presets, again courtesy of RipBot264.

Screen Shots




Storyline

The film opens with two men, José (Hugo Silva) and Antonio (Mario Casas) robbing a pawn shop. Antonio is unhappy that José has brought his son Sergio (Gabriel Delgado) along on the heist and is even unhappier that the child is participating with them, as this puts both him and them at risk…

WARNING! What follows is a massive Spoiler. Read it only after you have watched the entire movie, are completly bewildered about what just happened, and are in desperate need of some sort of explanation and clarification. YOU’VE BEEN WARNED!

The robbery initially seems to go well and the group collects a large bag full of gold rings and jewellery, only for the robbery to turn sour and for several people to die in the resulting gunfire. The men hijack a taxi and stow its unwilling passenger in the trunk, then force the driver, Manuel (Jaime Ordóñez), to drive towards Spain’s border with the intent to flee to France.

The group is followed by Sergio’s mother and José’s ex Silvia (Macarena Gómez) as well as two police investigators Pacheco (Secun de la Rosa) and Calvo (Pepón Nieto), who are following Silvia. The men end up in the Navarrese town of Zugarramurdi where they come across a group of cannibalistic witches led by Graciana (Carmen Maura), whose mother Maritxu (Terele Pávez) tries to cook Sergio in her oven. They manage to escape the witches once but are forced to turn back when they realise that José has accidentally left the loot at the witches’ house. They return but are swiftly captured by the witches with the exception of Sergio, who escapes but is ultimately re-captured by Maritxu. At this point José learns that Sergio will be used as part of an arcane ritual to Graciana’s goddess and that the rest of them will likely be killed as part of the ritual.

Silvia, who has been following the men’s trail throughout the film, manages to find the witches’ house in time to see Sergio get carried into the house. She enlists the help of the cops (as she knew that they had been following her) and the three of them manage to break into the house, where they find a secret passage that allows them to witness a dinner party Graciana is holding for various witches that will be attending the night’s ritual. The secret passage, which was in the ceiling, ends up to be too weak to hold the weight of Silvia and both cops, and the trio ends up landing on the dinner table. José, Antonio, and Manuel end up escaping in the chaos, however Silvia and the two cops are captured, with Silvia turned into a witch with the use of tainted toad juice. The three men are then chased by the witches and are all eventually re-captured except for José, who survives only through the intervention of Graciana’s daughter Eva (Carolina Bang), who had fallen instantly in love with him. She demands that he leave with her right away, forsaking all of the others, only for José to refuse to leave his son behind. Eva throws a fit, which sends José flying and he flees the scene. He ultimately ends up in an underground chamber in the house, where he comes across Eva’s brother Luismi, who has been imprisoned for years. José frees Luismi, who then shows him the way to the ritual chamber. Along the way they free Eva, who had been buried alive by her mother for her betrayal. Eva professes her love for José, who turns her away because she is a witch and because everything is so chaotic.

Ultimately Luismi and José make it to the ritual chamber where they see Antonio, Manuel, Pacheco, and Calvo get put in front of a fire to slowly burn to death. They also witness the emergence of Graciana’s ugly goddess, a grotesque gargantuan woman resembling a fertility statue. The ugly goddess devours Sergio, who passes through the giant and emerges alive, much to the joy of the witches, who proclaim that he will lead them all to victory over mankind. José confronts the witches with the help of Eva, who manages to cause the goddess’s destruction, and José manages to escape the chaos with Sergio, Eva, and the other men. The witches are all presumed to have died in the chaos caused by the goddess’s death throes. The film ends with an epilogue that takes place at a school talent show one month later. José and Eva are shown to be a couple raising Sergio, who is growing into his powers. Everything seems to have ended happily, only for the camera to show that Silvia, Graciana, and Maritxu are all alive and are content to wait for the couple to grow discontent with their happiness and once again turn to the witches.

Media Info

General

Format : Matroska

Format version : Version 4

File size : 4.00 GiB

Duration : 1 h 53 min

Overall bit rate : 5 034 kb/s

Movie name : Witching & Bitching (2013)

Encoded date : UTC 2019-10-01 05:59:42

Writing application : mkvmerge v37.0.0 (‘Leave It’) 64-bit

Writing library : libebml v1.3.9 + libmatroska v1.5.2

Video
ID : 1

Format : HEVC

Format/Info : High Efficiency Video Coding

Format profile : Main [email protected]@Main

Codec ID : V_MPEGH/ISO/HEVC

Duration : 1 h 53 min

Bit rate : 4 711 kb/s

Width : 1 920 pixels

Height : 1 080 pixels

Display aspect ratio : 16:9

Frame rate mode : Constant

Frame rate : 29.970 (30000/1001) FPS

Color space : YUV

Chroma subsampling : 4:2:0

Bit depth : 10 bits

Bits/(Pixel*Frame) : 0.076

Stream size : 3.75 GiB (94%)

Writing library : x265 3.1+11-de920e0a3183:[Windows][GCC 9.2.1][64 bit] 10bit

Encoding settings : rc=abr / bitrate=4710 / qcomp=0.60 / qpstep=4 / qpmax=69 / qpmin=0 / no-lossless / no-cu-lossless / ipratio=1.40 / pbratio=1.30 / aq-mode=2 / aq-strength=1.00 / psy-rd=2.00 / psy-rdoq=1.00 / rdoq-level=2 / cbqpoffs=0 / crqpoffs=0 / ctu=32 / min-cu-size=8 / ref=5 / limit-refs=1 / limit-modes / me=3 / subme=4 / merange=57 / no-hme / rd=6 / no-rd-refine / no-ssim-rd / rdpenalty=0 / deblock=0:0 / min-keyint=30 / keyint=300 / bframes=8 / bframe-bias=0 / b-adapt=2 / b-intra / b-pyramid / cutree / max-merge=4 / no-fades / weightp / weightb / rect / amp / sao / no-limit-sao / no-sao-non-deblock / no-early-skip / no-splitrd-skip / rskip / no-tskip / no-tskip-fast / no-fast-intra / scenecut=40 / scenecut-bias=0.05 / rc-lookahead=40 / gop-lookahead=0 / lookahead-slices=0 / max-tu-size=32 / tu-inter-depth=3 / tu-intra-depth=3 / limit-tu=4 / qg-size=32 / radl=0 / open-gop / no-hevc-aq / no-aq-motion / no-dynamic-refine / dynamic-rd=0.00 / nr-intra=0 / nr-inter=0 / strong-intra-smoothing / no-constrained-intra / no-strict-cbr / no-const-vbv / no-rc-grain / wpp / no-pmode / no-pme / no-psnr / no-ssim / signhide / stats-write=0 / stats-read=2 / cplxblur=20.0 / qblur=0.5 / zone-count=0 / input-csp=1 / input-res=1920×1080 / interlace=0 / total-frames=204796 / frame-threads=4 / level-idc=0 / high-tier=1 / uhd-bd=0 / no-analyze-src-pics / no-allow-non-conformance / no-repeat-headers / annexb / no-aud / no-hrd / info / hash=0 / temporal-mvp / no-temporal-layers / no-splice / no-intra-refresh / sar=1 / overscan=0 / videoformat=5 / range=0 / colorprim=1 / transfer=1 / colormatrix=1 / chromaloc=0 / display-window=0 / cll=0,0 / min-luma=0 / max-luma=1023 / log2-max-poc-lsb=8 / vui-timing-info / vui-hrd-info / slices=1 / no-opt-qp-pps / no-opt-ref-list-length-pps / no-multi-pass-opt-rps / no-opt-cu-delta-qp / no-hdr / no-hdr-opt / no-dhdr10-opt / no-idr-recovery-sei / analysis-reuse-level=5 / scale-factor=0 / refine-intra=0 / refine-inter=0 / refine-mv=0 / refine-ctu-distortion=0 / refine-analysis-type=0 / ctu-info=0 / copy-pic=1 / max-ausize-factor=1.0 / no-single-sei / no-svt / no-field / no-lowpass-dct / cpuid=1111039 / numa-pools=28 / log-level=2 / qp-adaptation-range=1.00

Default : Yes

Forced : No

Color range : Limited

Color primaries : BT.709

Transfer characteristics : BT.709

Matrix coefficients : BT.709

Audio
ID : 2

Format : AAC LC

Format/Info : Advanced Audio Codec Low Complexity

Codec ID : A_AAC-2

Duration : 1 h 53 min

Bit rate : 320 kb/s

Channel(s) : 6 channels

Channel layout : C L R Ls Rs LFE

Sampling rate : 48.0 kHz

Frame rate : 46.875 FPS (1024 SPF)

Compression mode : Lossy

Stream size : 261 MiB (6%)

Language : Spanish

Default : Yes

Forced : No

Witching.&.Bitching.(2013).DeDownload Torrent Magnet

#WitchingBitching2013De