Winter’s Bone (2010) (1080p x Full Torrent Magnet Download

Download Torrent Winter’s Bone (2010) (1080p x Movie Full in HD Result. Movie Winter’s Bone (2010) (1080p x Torrent Download full. Movie Winter’s Bone (2010) (1080p x torrent Magnet Download Full. Winter’s Bone (2010) (1080p x Full Movie Torrent Download And Magnet Download For your PC And Mobiles. Latest Movie Winter’s Bone (2010) (1080p x Download Link In Bottom.

Torrent And Magnet Links Below

General

Format : Matroska

Format version : Version 4

File size : 3.84 GiB

Duration : 1 h 39 min

Overall bit rate : 5 499 kb/s

Movie name : Winter’s Bone (2010) 1080p x265 HEVC 10bit BluRay AC3 5.1 [Prof]
Encoded date : UTC 2021-03-17 12:30:59

Writing application : mkvmerge v53.0.0 (‘Fool’s Gold’) 64-bit

Writing library : libebml v1.4.1 + libmatroska v1.6.2

Video

ID : 1

Format : HEVC

Format/Info : High Efficiency Video Coding

Format profile : Main [email protected]@Main

Codec ID : V_MPEGH/ISO/HEVC

Duration : 1 h 39 min

Bit rate : 4 727 kb/s

Width : 1 920 pixels

Height : 1 040 pixels

Display aspect ratio : 1.85:1

Frame rate mode : Constant

Frame rate : 23.976 (24000/1001) FPS

Color space : YUV

Chroma subsampling : 4:2:0

Bit depth : 10 bits

Bits/(Pixel*Frame) : 0.099

Stream size : 3.30 GiB (86%)

Writing library : x265 3.5_RC1+2+23-bd060601e:[Windows][GCC 10.2.0][64 bit] 10bit

Encoding settings : cpuid=1111039 / frame-threads=4 / numa-pools=24 / wpp / no-pmode / no-pme / no-psnr / no-ssim / log-level=2 / input-csp=1 / input-res=1920×1040 / interlace=0 / total-frames=143832 / level-idc=0 / high-tier=1 / uhd-bd=0 / ref=5 / no-allow-non-conformance / no-repeat-headers / annexb / no-aud / no-hrd / info / hash=0 / no-temporal-layers / open-gop / min-keyint=23 / keyint=250 / gop-lookahead=0 / bframes=8 / b-adapt=2 / b-pyramid / bframe-bias=0 / rc-lookahead=40 / lookahead-slices=1 / scenecut=40 / hist-scenecut=0 / radl=0 / no-splice / no-intra-refresh / ctu=64 / min-cu-size=8 / rect / amp / max-tu-size=32 / tu-inter-depth=3 / tu-intra-depth=3 / limit-tu=4 / rdoq-level=2 / dynamic-rd=0.00 / no-ssim-rd / signhide / no-tskip / nr-intra=0 / nr-inter=0 / no-constrained-intra / strong-intra-smoothing / max-merge=4 / limit-refs=1 / limit-modes / me=3 / subme=4 / merange=57 / temporal-mvp / no-frame-dup / no-hme / weightp / weightb / no-analyze-src-pics / deblock=0:0 / sao / no-sao-non-deblock / rd=6 / selective-sao=4 / no-early-skip / rskip / no-fast-intra / no-tskip-fast / no-cu-lossless / b-intra / no-splitrd-skip / rdpenalty=0 / psy-rd=2.00 / psy-rdoq=1.00 / no-rd-refine / no-lossless / cbqpoffs=0 / crqpoffs=0 / rc=crf / crf=18.0 / qcomp=0.60 / qpstep=4 / stats-write=0 / stats-read=0 / ipratio=1.40 / pbratio=1.30 / aq-mode=3 / aq-strength=1.00 / cutree / zone-count=0 / no-strict-cbr / qg-size=32 / no-rc-grain / qpmax=69 / qpmin=0 / no-const-vbv / sar=0 / overscan=0 / videoformat=5 / range=0 / colorprim=2 / transfer=2 / colormatrix=2 / chromaloc=0 / display-window=0 / cll=0,0 / min-luma=0 / max-luma=1023 / log2-max-poc-lsb=8 / vui-timing-info / vui-hrd-info / slices=1 / no-opt-qp-pps / no-opt-ref-list-length-pps / no-multi-pass-opt-rps / scenecut-bias=0.05 / hist-threshold=0.03 / no-opt-cu-delta-qp / no-aq-motion / no-hdr10 / no-hdr10-opt / no-dhdr10-opt / no-idr-recovery-sei / analysis-reuse-level=0 / analysis-save-reuse-level=0 / analysis-load-reuse-level=0 / scale-factor=0 / refine-intra=0 / refine-inter=0 / refine-mv=1 / refine-ctu-distortion=0 / no-limit-sao / ctu-info=0 / no-lowpass-dct / refine-analysis-type=0 / copy-pic=1 / max-ausize-factor=1.0 / no-dynamic-refine / no-single-sei / no-hevc-aq / no-svt / no-field / qp-adaptation-range=1.00 / scenecut-aware-qp=0conformance-window-offsets / right=0 / bottom=0 / decoder-max-rate=0 / no-vbv-live-multi-pass

Default : Yes

Forced : No

Audio #1

ID : 2

Format : AC-3

Format/Info : Audio Coding 3

Commercial name : Dolby Digital

Codec ID : A_AC3

Duration : 1 h 39 min

Bit rate mode : Constant

Bit rate : 448 kb/s

Channel(s) : 6 channels

Channel layout : L R C LFE Ls Rs

Sampling rate : 48.0 kHz

Frame rate : 31.250 FPS (1536 SPF)

Compression mode : Lossy

Stream size : 320 MiB (8%)

Language : English

Service kind : Complete Main

Default : Yes

Forced : No

Audio #2

ID : 3

Format : AAC LC

Format/Info : Advanced Audio Codec Low Complexity

Codec ID : A_AAC-2

Duration : 1 h 39 min

Bit rate : 192 kb/s

Channel(s) : 2 channels

Channel layout : L R

Sampling rate : 48.0 kHz

Frame rate : 46.875 FPS (1024 SPF)

Compression mode : Lossy

Delay relative to video : 904 ms

Stream size : 137 MiB (3%)

Title : Commentary by director Debra Granik and director of photography Michael McDonough

Language : English

Default : No

Forced : No

Text #1

ID : 4

Format : PGS

Muxing mode : zlib

Codec ID : S_HDMV/PGS

Codec ID/Info : Picture based subtitle format used on BDs/HD-DVDs

Duration : 1 h 38 min

Bit rate : 26.5 kb/s

Count of elements : 1982

Stream size : 18.7 MiB (0%)

Language : English

Default : No

Forced : No

Text #2

ID : 5

Format : PGS

Muxing mode : zlib

Codec ID : S_HDMV/PGS

Codec ID/Info : Picture based subtitle format used on BDs/HD-DVDs

Duration : 1 h 39 min

Bit rate : 69.4 kb/s

Count of elements : 2242

Stream size : 49.5 MiB (1%)

Title : SDH

Language : English

Default : No

Forced : No

Text #3

ID : 6

Format : PGS

Muxing mode : zlib

Codec ID : S_HDMV/PGS

Codec ID/Info : Picture based subtitle format used on BDs/HD-DVDs

Duration : 1 h 33 min

Bit rate : 14.3 kb/s

Count of elements : 1450

Stream size : 9.60 MiB (0%)

Language : German

Default : No

Forced : No

Text #4

ID : 7

Format : PGS

Muxing mode : zlib

Codec ID : S_HDMV/PGS

Codec ID/Info : Picture based subtitle format used on BDs/HD-DVDs

Duration : 1 h 37 min

Bit rate : 94.6 kb/s

Count of elements : 4244

Stream size : 65.9 MiB (2%)

Language : Japanese

Default : No

Forced : No

Text #5

ID : 8

Format : PGS

Muxing mode : zlib

Codec ID : S_HDMV/PGS

Codec ID/Info : Picture based subtitle format used on BDs/HD-DVDs

Duration : 1 h 38 min

Bit rate : 62.6 kb/s

Count of elements : 1772

Stream size : 44.1 MiB (1%)

Title : Latin American

Language : Spanish

Default : No

Forced : No

Text #6

ID : 9

Format : PGS

Muxing mode : zlib

Codec ID : S_HDMV/PGS

Codec ID/Info : Picture based subtitle format used on BDs/HD-DVDs

Duration : 1 h 39 min

Bit rate : 35.0 kb/s

Count of elements : 1446

Stream size : 24.9 MiB (1%)

Title : Commentary by director Debra Granik and director o

Language : German

Default : No

Forced : No

Menu

00:00:00.000 : en:Wake Up

00:10:01.351 : en:Saw The Law Here

00:18:47.501 : en:My Dad’s Jessup

00:28:02.806 : en:Get in the truck

00:35:33.590 : en:I’m Looking for Dad

00:46:13.896 : en:Now He’s a Runner

00:58:19.955 : en:You Understand?

01:05:12.200 : en:U.S. Army

01:15:52.173 : en:You’re Smart

01:19:17.503 : en:Fix Your Problem

01:26:33.355 : en:Come on Back

01:31:05.168 : en:It’s Been A Long Time

Winter’s Bone (2010) (1080p xDownload Torrent Magnet

#Winters #Bone #1080p