Winter in Wartime (2008) (108 Full Torrent Magnet Download

Download Torrent Winter in Wartime (2008) (108 Movie Full in HD Result. Movie Winter in Wartime (2008) (108 Torrent Download full. Movie Winter in Wartime (2008) (108 torrent Magnet Download Full. Winter in Wartime (2008) (108 Full Movie Torrent Download And Magnet Download For your PC And Mobiles. Latest Movie Winter in Wartime (2008) (108 Download Link In Bottom.

Torrent And Magnet Links Below

General

Format : Matroska

Format version : Version 4

File size : 8.52 GiB

Duration : 1 h 43 min

Overall bit rate : 11.8 Mb/s

Encoded date : UTC 2021-03-22 08:12:10

Writing application : mkvmerge v53.0.0 (‘Fool’s Gold’) 64-bit

Writing library : libebml v1.4.1 + libmatroska v1.6.2

Video

ID : 1

Format : HEVC

Format/Info : High Efficiency Video Coding

Format profile : Main [email protected]@Main

Codec ID : V_MPEGH/ISO/HEVC

Duration : 1 h 43 min

Bit rate : 11.2 Mb/s

Width : 1 920 pixels

Height : 800 pixels

Display aspect ratio : 2.40:1

Frame rate mode : Constant

Frame rate : 24.000 FPS

Color space : YUV

Chroma subsampling : 4:2:0

Bit depth : 10 bits

Bits/(Pixel*Frame) : 0.303

Stream size : 8.05 GiB (94%)

Writing library : x265 3.5_RC1+2+23-bd060601e:[Windows][GCC 10.2.0][64 bit] 10bit

Encoding settings : cpuid=1111039 / frame-threads=4 / numa-pools=24 / wpp / no-pmode / no-pme / no-psnr / no-ssim / log-level=2 / input-csp=1 / input-res=1920×800 / interlace=0 / total-frames=148575 / level-idc=0 / high-tier=1 / uhd-bd=0 / ref=5 / no-allow-non-conformance / no-repeat-headers / annexb / no-aud / no-hrd / info / hash=0 / no-temporal-layers / open-gop / min-keyint=24 / keyint=250 / gop-lookahead=0 / bframes=8 / b-adapt=2 / b-pyramid / bframe-bias=0 / rc-lookahead=40 / lookahead-slices=0 / scenecut=40 / hist-scenecut=0 / radl=0 / no-splice / no-intra-refresh / ctu=64 / min-cu-size=8 / rect / amp / max-tu-size=32 / tu-inter-depth=3 / tu-intra-depth=3 / limit-tu=4 / rdoq-level=2 / dynamic-rd=0.00 / no-ssim-rd / signhide / no-tskip / nr-intra=0 / nr-inter=0 / no-constrained-intra / strong-intra-smoothing / max-merge=4 / limit-refs=1 / limit-modes / me=3 / subme=4 / merange=57 / temporal-mvp / no-frame-dup / no-hme / weightp / weightb / no-analyze-src-pics / deblock=0:0 / sao / no-sao-non-deblock / rd=6 / selective-sao=4 / no-early-skip / rskip / no-fast-intra / no-tskip-fast / no-cu-lossless / b-intra / no-splitrd-skip / rdpenalty=0 / psy-rd=2.00 / psy-rdoq=1.00 / no-rd-refine / no-lossless / cbqpoffs=0 / crqpoffs=0 / rc=crf / crf=19.0 / qcomp=0.60 / qpstep=4 / stats-write=0 / stats-read=0 / ipratio=1.40 / pbratio=1.30 / aq-mode=3 / aq-strength=1.00 / cutree / zone-count=0 / no-strict-cbr / qg-size=32 / no-rc-grain / qpmax=69 / qpmin=0 / no-const-vbv / sar=0 / overscan=0 / videoformat=5 / range=0 / colorprim=1 / transfer=1 / colormatrix=1 / chromaloc=0 / display-window=0 / cll=0,0 / min-luma=0 / max-luma=1023 / log2-max-poc-lsb=8 / vui-timing-info / vui-hrd-info / slices=1 / no-opt-qp-pps / no-opt-ref-list-length-pps / no-multi-pass-opt-rps / scenecut-bias=0.05 / hist-threshold=0.03 / no-opt-cu-delta-qp / no-aq-motion / no-hdr10 / no-hdr10-opt / no-dhdr10-opt / no-idr-recovery-sei / analysis-reuse-level=0 / analysis-save-reuse-level=0 / analysis-load-reuse-level=0 / scale-factor=0 / refine-intra=0 / refine-inter=0 / refine-mv=1 / refine-ctu-distortion=0 / no-limit-sao / ctu-info=0 / no-lowpass-dct / refine-analysis-type=0 / copy-pic=1 / max-ausize-factor=1.0 / no-dynamic-refine / no-single-sei / no-hevc-aq / no-svt / no-field / qp-adaptation-range=1.00 / scenecut-aware-qp=0conformance-window-offsets / right=0 / bottom=0 / decoder-max-rate=0 / no-vbv-live-multi-pass

Default : Yes

Forced : No

Color range : Limited

Color primaries : BT.709

Transfer characteristics : BT.709

Matrix coefficients : BT.709

Audio

ID : 2

Format : AC-3

Format/Info : Audio Coding 3

Commercial name : Dolby Digital

Codec ID : A_AC3

Duration : 1 h 43 min

Bit rate mode : Constant

Bit rate : 640 kb/s

Channel(s) : 6 channels

Channel layout : L R C LFE Ls Rs

Sampling rate : 48.0 kHz

Frame rate : 31.250 FPS (1536 SPF)

Compression mode : Lossy

Stream size : 473 MiB (5%)

Language : Dutch

Service kind : Complete Main

Default : Yes

Forced : No

Text #1

ID : 3

Format : PGS

Muxing mode : zlib

Codec ID : S_HDMV/PGS

Codec ID/Info : Picture based subtitle format used on BDs/HD-DVDs

Duration : 1 h 36 min

Bit rate : 6 975 b/s

Count of elements : 720

Stream size : 4.80 MiB (0%)

Language : English

Default : Yes

Forced : No

Text #2

ID : 4

Format : PGS

Muxing mode : zlib

Codec ID : S_HDMV/PGS

Codec ID/Info : Picture based subtitle format used on BDs/HD-DVDs

Duration : 1 h 22 min

Bit rate : 3 703 b/s

Count of elements : 306

Stream size : 2.17 MiB (0%)

Title : for non-Dutch dialog

Language : Dutch

Default : No

Forced : No

Text #3

ID : 5

Format : PGS

Muxing mode : zlib

Codec ID : S_HDMV/PGS

Codec ID/Info : Picture based subtitle format used on BDs/HD-DVDs

Duration : 1 h 36 min

Bit rate : 15.8 kb/s

Count of elements : 1392

Stream size : 10.9 MiB (0%)

Title : SDH

Language : Dutch

Default : No

Forced : No

Text #4

ID : 6

Format : PGS

Muxing mode : zlib

Codec ID : S_HDMV/PGS

Codec ID/Info : Picture based subtitle format used on BDs/HD-DVDs

Duration : 1 h 32 min

Bit rate : 9 624 b/s

Count of elements : 1056

Stream size : 6.39 MiB (0%)

Language : French

Default : No

Forced : No

Menu

00:00:00.000 : en:Chapter 01

00:05:08.958 : en:Chapter 02

00:09:53.458 : en:Chapter 03

00:14:23.583 : en:Chapter 04

00:19:03.458 : en:Chapter 05

00:23:00.458 : en:Chapter 06

00:28:58.083 : en:Chapter 07

00:31:44.625 : en:Chapter 08

00:37:05.750 : en:Chapter 09

00:41:46.708 : en:Chapter 10

00:46:48.208 : en:Chapter 11

00:52:11.083 : en:Chapter 12

00:57:08.875 : en:Chapter 13

01:01:49.417 : en:Chapter 14

01:05:39.500 : en:Chapter 15

01:10:07.500 : en:Chapter 16

01:13:52.792 : en:Chapter 17

01:18:19.042 : en:Chapter 18

01:24:26.333 : en:Chapter 19

01:37:30.000 : en:Chapter 20

Source:

Remux 20.17 GB

Winter in Wartime (2008) (108Download Torrent Magnet

#Winter #Wartime