Wild Dog (2021) 1080p – HDRip Full Torrent Magnet Download

Download Torrent Wild Dog (2021) 1080p – HDRip Movie Full in HD Result. Movie Wild Dog (2021) 1080p – HDRip Torrent Download full. Movie Wild Dog (2021) 1080p – HDRip torrent Magnet Download Full. Wild Dog (2021) 1080p – HDRip Full Movie Torrent Download And Magnet Download For your PC And Mobiles. Latest Movie Wild Dog (2021) 1080p – HDRip Download Link In Bottom.

Torrent And Magnet Links Below

Please Seed Back After Download

Screenshots



Info

Video

ID : 1

Format : AVC

Format/Info : Advanced Video Codec

Format profile : [email protected]
Format settings : CABAC / 4 Ref Frames

Format settings, CABAC : Yes

Format settings, Reference frames : 4 frames

Codec ID : V_MPEG4/ISO/AVC

Duration : 2 h 6 min

Bit rate : 2 570 kb/s

Width : 1 920 pixels

Height : 816 pixels

Display aspect ratio : 2.35:1

Frame rate mode : Constant

Frame rate : 24.000 FPS

Color space : YUV

Chroma subsampling : 4:2:0

Bit depth : 8 bits

Scan type : Progressive

Bits/(Pixel*Frame) : 0.068

Stream size : 2.23 GiB (76%)

Writing library : x264 core 157 r2935 545de2f

Default : Yes

Forced : No

Color range : Limited

Color primaries : BT.709

Transfer characteristics : BT.709

Matrix coefficients : BT.709

Audio #1

ID : 2

Format : AC-3

Format/Info : Audio Coding 3

Commercial name : Dolby Digital

Codec ID : A_AC3

Duration : 2 h 6 min

Bit rate mode : Constant

Bit rate : 224 kb/s

Channel(s) : 6 channels

Channel layout : L R C LFE Ls Rs

Sampling rate : 48.0 kHz

Frame rate : 31.250 FPS (1536 SPF)

Compression mode : Lossy

Stream size : 202 MiB (7%)

Language : Tamil

Service kind : Complete Main

Default : Yes

Forced : No

Audio #2

ID : 3

Format : AC-3

Format/Info : Audio Coding 3

Commercial name : Dolby Digital

Codec ID : A_AC3

Duration : 2 h 6 min

Bit rate mode : Constant

Bit rate : 192 kb/s

Channel(s) : 6 channels

Channel layout : L R C LFE Ls Rs

Sampling rate : 48.0 kHz

Frame rate : 31.250 FPS (1536 SPF)

Compression mode : Lossy

Stream size : 173 MiB (6%)

Language : Kannada

Service kind : Complete Main

Default : No

Forced : No

Audio #3

ID : 4

Format : AC-3

Format/Info : Audio Coding 3

Commercial name : Dolby Digital

Codec ID : A_AC3

Duration : 2 h 6 min

Bit rate mode : Constant

Bit rate : 192 kb/s

Channel(s) : 6 channels

Channel layout : L R C LFE Ls Rs

Sampling rate : 48.0 kHz

Frame rate : 31.250 FPS (1536 SPF)

Compression mode : Lossy

Stream size : 173 MiB (6%)

Language : Malayalam

Service kind : Complete Main

Default : No

Forced : No

Audio #4

ID : 5

Format : AC-3

Format/Info : Audio Coding 3

Commercial name : Dolby Digital

Codec ID : A_AC3

Duration : 2 h 6 min

Bit rate mode : Constant

Bit rate : 192 kb/s

Channel(s) : 6 channels

Channel layout : L R C LFE Ls Rs

Sampling rate : 48.0 kHz

Frame rate : 31.250 FPS (1536 SPF)

Compression mode : Lossy

Stream size : 173 MiB (6%)

Language : Telugu

Service kind : Complete Main

Default : No

Forced : No

Text

ID : 6

Format : UTF-8

Codec ID : S_TEXT/UTF8

Codec ID/Info : UTF-8 Plain Text

Duration : 1 h 58 min

Bit rate : 47 b/s

Count of elements : 1330

Stream size : 41.7 KiB (0%)

Default : Yes

Forced : No

Wild Dog (2021) 1080p – HDRipDownload Torrent Magnet

#Wild #Dog #1080p #HDRip