White.Eye.[Ayn.Levana].2019.1 Full Torrent Magnet Download

Download Torrent White.Eye.[Ayn.Levana].2019.1 Movie Full in HD Result. Movie White.Eye.[Ayn.Levana].2019.1 Torrent Download full. Movie White.Eye.[Ayn.Levana].2019.1 torrent Magnet Download Full. White.Eye.[Ayn.Levana].2019.1 Full Movie Torrent Download And Magnet Download For your PC And Mobiles. Latest Movie White.Eye.[Ayn.Levana].2019.1 Download Link In Bottom.

Torrent And Magnet Links Below

Release: White.Eye.[Ayn.Levana].2019.1080p.WEB-DL.x264.AAC.HORiZON-ArtSubs

IMDB: https://www.imdb.com/title/tt10538710

Subtitle: English (hardcoded)

Plot: A man finds his stolen bicycle, which now belongs to a stranger. While attempting to retrieve it, he struggles to remain human. Nominated for Best Live Action Short Film in the Oscar 2021.

General

Complete name : White.Eye.[Ayn.Levana].2019.1080p.WEB-DL.x264.AAC.HORiZON-ArtSubs.mkv

Format : Matroska

Format version : Version 4

File size : 490 MiB

Duration : 20 min 27 s

Overall bit rate : 3 349 kb/s

Encoded date : UTC 2021-03-06 12:09:23

Writing application : mkvmerge v52.0.0 (‘Secret For The Mad’) 64-bit

Writing library : libebml v1.4.1 + libmatroska v1.6.2

Video

ID : 1

Format : AVC

Format/Info : Advanced Video Codec

Format profile : [email protected]
Format settings : CABAC / 4 Ref Frames

Format settings, CABAC : Yes

Format settings, Reference : 4 frames

Codec ID : V_MPEG4/ISO/AVC

Duration : 20 min 27 s

Bit rate : 3 100 kb/s

Width : 1 920 pixels

Height : 804 pixels

Display aspect ratio : 2.40:1

Frame rate mode : Constant

Frame rate : 24.000 FPS

Color space : YUV

Chroma subsampling : 4:2:0

Bit depth : 8 bits

Scan type : Progressive

Bits/(Pixel*Frame) : 0.084

Stream size : 453 MiB (92%)

Writing library : x264 core 157 r2935 545de2f

Encoding settings : cabac=1 / ref=4 / deblock=1:-2:-2 / analyse=0x3:0x133 / me=umh / subme=10 / psy=1 / psy_rd=1.00:0.25 / mixed_ref=1 / me_range=32 / chroma_me=1 / trellis=2 / 8x8dct=1 / cqm=0 / deadzone=6,6 / fast_pskip=1 / chroma_qp_offset=-4 / threads=6 / lookahead_threads=1 / sliced_threads=0 / nr=0 / decimate=0 / interlaced=0 / bluray_compat=0 / constrained_intra=0 / bframes=8 / b_pyramid=2 / b_adapt=2 / b_bias=0 / direct=3 / weightb=1 / open_gop=0 / weightp=2 / keyint=240 / keyint_min=24 / scenecut=40 / intra_refresh=0 / rc_lookahead=60 / rc=2pass / mbtree=1 / bitrate=3100 / ratetol=1.0 / qcomp=0.75 / qpmin=0 / qpmax=69 / qpstep=4 / cplxblur=20.0 / qblur=0.5 / vbv_maxrate=25000 / vbv_bufsize=78125 / nal_hrd=none / filler=0 / ip_ratio=1.10 / aq=3:1.20

Default : Yes

Forced : No

Color range : Limited

Color primaries : BT.709

Transfer characteristics : BT.709

Matrix coefficients : BT.709

Audio

ID : 2

Format : AAC LC

Format/Info : Advanced Audio Codec Low Complexity

Codec ID : A_AAC-2

Duration : 20 min 27 s

Bit rate : 253 kb/s

Channel(s) : 2 channels

Channel layout : L R

Sampling rate : 48.0 kHz

Frame rate : 46.875 FPS (1024 SPF)

Compression mode : Lossy

Stream size : 37.1 MiB (8%)

Language : Hebrew

Default : Yes

Forced : No

SCREENSHOTS:




White.Eye.[Ayn.Levana].2019.1Download Torrent Magnet

#WhiteEyeAynLevana20191