Where.Eagles.Dare – Dove.Osan Full Torrent Magnet Download

Download Torrent Where.Eagles.Dare – Dove.Osan Movie Full in HD Result. Movie Where.Eagles.Dare – Dove.Osan Torrent Download full. Movie Where.Eagles.Dare – Dove.Osan torrent Magnet Download Full. Where.Eagles.Dare – Dove.Osan Full Movie Torrent Download And Magnet Download For your PC And Mobiles. Latest Movie Where.Eagles.Dare – Dove.Osan Download Link In Bottom.

Torrent And Magnet Links Below


Dove Osano Le Aquile


Titolo originale: Where Eagles Dare

Genere: Guerra, Thriller, Azione

Anno: 1968

Regia: Brian G. Hutton

Attori: Richard Burton, Clint Eastwood, Mary Ure, Patrick Wymark, Michael Hordern, Robert Beatty, Anton Diffring, Peter Barkworth, Vincent Ball, Ferdy Mayne, Neil McCarthy, Derren Nesbitt, Ingrid Pitt, William Squire, Brook Williams, Donald Houston

Paese: Gran Bretagna

Durata: 158 min

Distribuzione: MGM – MGM Home Entertainment (GLI SCUDI) (1969)

Sceneggiatura: Alistair MacLean

Fotografia: Arthur Ibbetson

Montaggio: John Jympson

Musiche: Ron Goodwin

Produzione: Gershwin Kastner per Winkast Film Productions


Durante la Seconda Guerra Mondiale, un aereo britannico viene colpito e cade in una regione nel sud della Germania. I nazisti catturano l’unico supersitite, il Generale Carnaby, dell’alto comando delle Forze Armate USA, e lo portano al castello Adler, quartiere generale delle SS, per poterlo interrogare in quanto fonte più che preziosa di informazioni sulle strategie di guerra degli Alleati. Viene scartata l’ipotesi di bombardare il castello per impedire che il Generale riveli qualcosa, perché la sua vita è più preziosa di quanto le SS stesse immaginino, e nessun aereo può arrivare vicino al castello senza venire prima abbattuto. L’unica soluzione è mandare una squadra per infiltrarsi nel castello e liberare il Generale.




General

Unique ID : 192977000776962278356541178878339724323 (0x912E04B850E5C144BEC9F8C75E323423)

Complete name : Dove.Osano.Le.Aquile.1968.iTA.ENG.AC3.SUB.iTA.ENG.BluRay.1080p.x264.jeddak-MIRCrew.mkv

Format : Matroska

Format version : Version 2

File size : 3.08 GiB

Duration : 2 h 35 min

Overall bit rate : 2 844 kb/s

Movie name : Dove.Osano.Le.Aquile.1968.iTA.ENG.AC3.SUB.iTA.ENG.BluRay.1080p.x264.jeddak-MIRCrew

Encoded date : UTC 2021-04-09 17:11:34

Writing application : mkvmerge v5.6.0 (‘Kenya Kane’) built on May 27 2012 16:44:04

Writing library : libebml v1.2.3 + libmatroska v1.3.0 / Lavf58.29.100

Video

ID : 1

Format : AVC

Format/Info : Advanced Video Codec

Format profile : [email protected]
Format settings : CABAC / 4 Ref Frames

Format settings, CABAC : Yes

Format settings, Reference : 4 frames

Codec ID : V_MPEG4/ISO/AVC

Duration : 2 h 35 min

Bit rate : 2 200 kb/s

Width : 1 920 pixels

Height : 800 pixels

Display aspect ratio : 2.40:1

Frame rate mode : Constant

Frame rate : 23.976 (24000/1001) FPS

Color space : YUV

Chroma subsampling : 4:2:0

Bit depth : 8 bits

Scan type : Progressive

Bits/(Pixel*Frame) : 0.060

Stream size : 2.33 GiB (76%)

Title : …::: jeddak MIRCrew :::…

Writing library : x264 core 148

Encoding settings : cabac=1 / ref=3 / deblock=1:-1:-1 / analyse=0x3:0x113 / me=hex / subme=7 / psy=1 / psy_rd=1.00:0.15 / mixed_ref=1 / me_range=16 / chroma_me=1 / trellis=1 / 8x8dct=1 / cqm=0 / deadzone=21,11 / fast_pskip=1 / chroma_qp_offset=-3 / threads=6 / lookahead_threads=1 / sliced_threads=0 / nr=0 / decimate=1 / interlaced=0 / bluray_compat=0 / constrained_intra=0 / bframes=3 / b_pyramid=2 / b_adapt=1 / b_bias=0 / direct=1 / weightb=1 / open_gop=0 / weightp=2 / keyint=240 / keyint_min=24 / scenecut=40 / intra_refresh=0 / rc_lookahead=40 / rc=abr / mbtree=1 / bitrate=2200 / ratetol=1.0 / qcomp=0.60 / qpmin=0 / qpmax=69 / qpstep=4 / vbv_maxrate=62500 / vbv_bufsize=78125 / nal_hrd=none / filler=0 / ip_ratio=1.40 / aq=1:1.00

Default : Yes

Forced : No

Color range : Limited

Color primaries : BT.709

Transfer characteristics : BT.709

Matrix coefficients : BT.709

Audio #1

ID : 2

Format : AC-3

Format/Info : Audio Coding 3

Commercial name : Dolby Digital

Codec ID : A_AC3

Duration : 2 h 35 min

Bit rate mode : Constant

Bit rate : 192 kb/s

Channel(s) : 2 channels

Channel layout : L R

Sampling rate : 48.0 kHz

Frame rate : 31.250 FPS (1536 SPF)

Compression mode : Lossy

Delay relative to video : -5 ms

Stream size : 213 MiB (7%)

Title : iTA AC3 2.0

Language : Italian

Service kind : Complete Main

Default : Yes

Forced : No

Audio #2

ID : 3

Format : AC-3

Format/Info : Audio Coding 3

Commercial name : Dolby Digital

Codec ID : A_AC3

Duration : 2 h 35 min

Bit rate mode : Constant

Bit rate : 448 kb/s

Channel(s) : 6 channels

Channel layout : L R C LFE Ls Rs

Sampling rate : 48.0 kHz

Frame rate : 31.250 FPS (1536 SPF)

Compression mode : Lossy

Delay relative to video : -5 ms

Stream size : 497 MiB (16%)

Title : ENG AC3 5.1

Language : English

Service kind : Complete Main

Default : No

Forced : No

Text #1

ID : 4

Format : ASS

Codec ID : S_TEXT/ASS

Codec ID/Info : Advanced Sub Station Alpha

Duration : 2 h 34 min

Compression mode : Lossless

Title : iTA NON UDENTI

Language : Italian

Default : No

Forced : No

Text #2

ID : 5

Format : ASS

Codec ID : S_TEXT/ASS

Codec ID/Info : Advanced Sub Station Alpha

Duration : 2 h 34 min

Compression mode : Lossless

Title : ENG NON UDENTI

Language : English

Default : No

Forced : No

Menu

00:00:00.000 : :Capitolo 01

00:03:02.432 : :Capitolo 02

00:08:18.373 : :Capitolo 03

00:12:14.442 : :Capitolo 04

00:15:54.162 : :Capitolo 05

00:20:16.674 : :Capitolo 06

00:24:40.479 : :Capitolo 07

00:26:48.190 : :Capitolo 08

00:30:56.438 : :Capitolo 09

00:34:50.672 : :Capitolo 10

00:38:43.321 : :Capitolo 11

00:42:42.435 : :Capitolo 12

00:44:13.693 : :Capitolo 13

00:47:33.434 : :Capitolo 14

00:51:39.013 : :Capitolo 15

00:56:27.801 : :Capitolo 16

00:59:03.540 : :Capitolo 17

01:00:43.098 : :Capitolo 18

01:06:28.610 : :Capitolo 19

01:10:51.330 : :Capitolo 20

01:14:26.921 : :Capitolo 21

01:18:42.843 : :Capitolo 22

01:21:21.418 : :Capitolo 23

01:24:19.888 : :Capitolo 24

01:26:22.678 : :Capitolo 25

01:32:53.860 : :Capitolo 26

01:35:55.375 : :Capitolo 27

01:40:11.047 : :Capitolo 28

01:44:52.203 : :Capitolo 29

01:49:16.717 : :Capitolo 30

01:54:15.557 : :Capitolo 31

01:57:39.010 : :Capitolo 32

02:02:28.091 : :Capitolo 33

02:06:04.849 : :Capitolo 34

02:10:58.267 : :Capitolo 35

02:13:33.047 : :Capitolo 36

02:17:10.305 : :Capitolo 37

02:19:13.470 : :Capitolo 38

02:22:46.141 : :Capitolo 39

02:28:12.967 : :Capitolo 40

02:30:50.833 : :Capitolo 41

02:34:29.510 : :Capitolo 42

Where.Eagles.Dare – Dove.OsanDownload Torrent Magnet

#WhereEaglesDare #DoveOsan