Welcome.to.Chechnya.2020.1080 Full Torrent Magnet Download

Download Torrent Welcome.to.Chechnya.2020.1080 Movie Full in HD Result. Movie Welcome.to.Chechnya.2020.1080 Torrent Download full. Movie Welcome.to.Chechnya.2020.1080 torrent Magnet Download Full. Welcome.to.Chechnya.2020.1080 Full Movie Torrent Download And Magnet Download For your PC And Mobiles. Latest Movie Welcome.to.Chechnya.2020.1080 Download Link In Bottom.

Torrent And Magnet Links Below

Release: Welcome.to.Chechnya.2020.1080p.WEB-DL.x264.AC3.EURiMAGE

IMDB: https://www.imdb.com/title/tt11394200/

Subtitle: English (Hardsubbed for russian dialogue)

Plot: A group of activists risk their lives fighting for LGBTQ+ rights in Chechnya.

Complete name               : Welcome.to.Chechnya.2020.1080p.WEB-DL.x264.AC3.EURiMAGE.mkv

Format : Matroska

Format version : Version 2

File size : 2.47 GiB

Duration : 1 h 47 min

Overall bit rate mode : Constant

Overall bit rate : 3 279 kb/s

Movie name : Welcome.to.Chechnya.2020.1080p.AMZN.WEB-DL.DDP5.1.H.264-NTG

Encoded date : UTC 2020-11-20 15:32:28

Writing application : DVDFab 10.2.0.7

Writing library : libebml v1.3.4 + libmatroska v1.4.5

Video

ID : 1

Format : AVC

Format/Info : Advanced Video Codec

Format profile : [email protected]
Format settings : CABAC / 1 Ref Frames

Format settings, CABAC : Yes

Format settings, Reference : 1 frame

Format settings, GOP : M=1, N=24

Codec ID : V_MPEG4/ISO/AVC

Duration : 1 h 47 min

Bit rate mode : Constant

Bit rate : 2 829 kb/s

Nominal bit rate : 3 000 kb/s

Width : 1 920 pixels

Height : 1 080 pixels

Display aspect ratio : 16:9

Frame rate mode : Constant

Frame rate : 23.976 (24000/1001) FPS

Color space : YUV

Chroma subsampling : 4:2:0

Bit depth : 8 bits

Scan type : Progressive

Bits/(Pixel*Frame) : 0.057

Stream size : 2.13 GiB (86%)

Default : Yes

Forced : No

Color range : Limited

Color primaries : BT.709

Transfer characteristics : BT.709

Matrix coefficients : BT.709

Audio

ID : 2

Format : AC-3

Format/Info : Audio Coding 3

Commercial name : Dolby Digital

Codec ID : A_AC3

Duration : 1 h 47 min

Bit rate mode : Constant

Bit rate : 448 kb/s

Channel(s) : 6 channels

Channel layout : L R C LFE Ls Rs

Sampling rate : 48.0 kHz

Frame rate : 31.250 FPS (1536 SPF)

Compression mode : Lossy

Stream size : 345 MiB (14%)

Language : English

Service kind : Complete Main

Default : Yes

Forced : No

SCREENSHOTS:




Welcome.to.Chechnya.2020.1080Download Torrent Magnet

#WelcometoChechnya20201080