Way Down (2021) x.265.HEVC [1 Full Torrent Magnet Download

Download Torrent Way Down (2021) x.265.HEVC [1 Movie Full in HD Result. Movie Way Down (2021) x.265.HEVC [1 Torrent Download full. Movie Way Down (2021) x.265.HEVC [1 torrent Magnet Download Full. Way Down (2021) x.265.HEVC [1 Full Movie Torrent Download And Magnet Download For your PC And Mobiles. Latest Movie Way Down (2021) x.265.HEVC [1 Download Link In Bottom.

Torrent And Magnet Links Below




Title: Way Down
Year Of Release: 2021

Genre: Action, Adventure, Thriller

Total Size: 3.31GB

Subtitles: Hardcoded English for Spanish parts only

Movie Info

General

Unique ID                                : 270075846909352596097283057002541180926 (0xCB2EB75123D001B1C41E3383790B67FE)

Complete name                            : G:New March 2021Way Down 2021 (Action, Adventure, Thriller) [1080p-DD5.1] (6.3)Way Down.2021.1080p DD 5.1..mkv

Format                                   : Matroska

Format version                           : Version 4

File size                                : 3.31 GiB

Duration                                 : 1 h 58 min

Overall bit rate                         : 4 014 kb/s

Movie name                               : Way Down

Encoded date                             : UTC 2021-03-12 00:06:00

Writing application                      : Lavf58.29.100

Writing library                          : Lavf58.29.100

ErrorDetectionType                       : Per level 1

Video

ID                                       : 1

Format                                   : HEVC

Format/Info                              : High Efficiency Video Coding

Format profile                           : [email protected]@Main

Codec ID                                 : V_MPEGH/ISO/HEVC

Duration                                 : 1 h 58 min

Bit rate                                 : 4 547 kb/s

Width                                    : 1 920 pixels

Height                                   : 798 pixels

Display aspect ratio                     : 2.40:1

Frame rate mode                          : Constant

Frame rate                               : 24.000 FPS

Color space                              : YUV

Chroma subsampling                       : 4:2:0

Bit depth                                : 8 bits

Bits/(Pixel*Frame)                       : 0.124

Stream size                              : 3.75 GiB

Writing library                          : Lavc58.54.100 hevc_nvenc

Language                                 : English

Default                                  : Yes

Forced                                   : No

Audio

ID                                       : 2

Format                                   : AAC LC

Format/Info                              : Advanced Audio Codec Low Complexity

Codec ID                                 : A_AAC-2

Duration                                 : 1 h 58 min

Bit rate                                 : 384 kb/s

Channel(s)                               : 6 channels

Channel layout                           : C L R Ls Rs LFE

Sampling rate                            : 48.0 kHz

Frame rate                               : 46.875 FPS (1024 SPF)

Compression mode                         : Lossy

Delay relative to video                  : -63 ms

Stream size                              : 324 MiB (10%)

Writing library                          : Lavc58.54.100 aac

Language                                 : English

Default                                  : Yes

Forced                                   : No

Menu

00:00:00.000                             : :1

00:10:40.000                             : :2

00:20:05.958                             : :3

00:32:15.041                             : :4

00:48:30.707                             : :5

00:58:19.290                             : :6

01:11:53.580                             : :7

01:23:45.871                             : :8

01:36:37.371                             : :9

01:43:19.703                             : :10

01:51:14.744                             : :11


Way Down (2021) x.265.HEVC [1Download Torrent Magnet

#x265HEVC