Wander.Darkly – Vagando.Nell. Full Torrent Magnet Download

Download Torrent Wander.Darkly – Vagando.Nell. Movie Full in HD Result. Movie Wander.Darkly – Vagando.Nell. Torrent Download full. Movie Wander.Darkly – Vagando.Nell. torrent Magnet Download Full. Wander.Darkly – Vagando.Nell. Full Movie Torrent Download And Magnet Download For your PC And Mobiles. Latest Movie Wander.Darkly – Vagando.Nell. Download Link In Bottom.

Torrent And Magnet Links Below


Vagando Nell’Oscurità


Titolo originale: Wander Darkly

Anno: 2020

Genere: Drammatico

Regia: Tara Miele

Attori: Sienna Miller, Diego Luna, Beth Grant, Vanessa Bayer, Brett Rice, Aimee Carrero, Dan Gill, Tory Kittles, Ayden Mayeri, Cailan Robinson

Poduttori: Mark David Katchur, Connor Flanagan

Nazionalità: USA

Durata:97 (min)


I neo-genitori Adrienne e Matteo sono costretti a fare i conti con il trauma derivante da un incidente d’auto, che ha effetti devastanti sul loro già travagliato rapporto. Saranno così costretti a rivedere i ricordi del passato e a svelare ossessionanti verità per far fronte al loro incerto futuro.




General

Unique ID                   : 196154821784339175574293388432977263786 (0x93920B646B8FA80187616A0425697CAA)

Complete name               : Vagando.Nell.Oscurita.2020.iTA.ENG.AC3.SUB.iTA.ENG.BluRay.HEVC.1080p.x265.jeddak-MIRCrew.mkv

Format                      : Matroska

Format version              : Version 2

File size                   : 2.17 GiB

Duration                    : 1 h 37 min

Overall bit rate            : 3 203 kb/s

Movie name                  : Vagando.Nell.Oscurita.2020.iTA.ENG.AC3.SUB.iTA.ENG.BluRay.HEVC.1080p.x265.jeddak-MIRCrew

Encoded date                : UTC 2021-03-13 08:08:37

Writing application         : mkvmerge v5.6.0 (‘Kenya Kane’) built on May 27 2012 16:44:04

Writing library             : libebml v1.2.3 + libmatroska v1.3.0 / Lavf58.29.100

Video

ID                          : 1

Format                      : HEVC

Format/Info                 : High Efficiency Video Coding

Format profile              : [email protected]@Main

Codec ID                    : V_MPEGH/ISO/HEVC

Duration                    : 1 h 37 min

Bit rate                    : 2 307 kb/s

Width                       : 1 920 pixels

Height                      : 1 036 pixels

Display aspect ratio        : 1.85:1

Frame rate mode             : Constant

Frame rate                  : 23.976 (24000/1001) FPS

Color space                 : YUV

Chroma subsampling          : 4:2:0

Bit depth                   : 8 bits

Bits/(Pixel*Frame)          : 0.048

Stream size                 : 1.56 GiB (72%)

Title                       : …::: jeddak MIRCrew :::…

Writing library             : x265 3.2.1+1-b5c86a64bbbe:[Linux][GCC 9.2.0][64 bit] 8bit+10bit+12bit

Encoding settings           : cpuid=1111039 / frame-threads=5 / wpp / no-pmode / no-pme / no-psnr / no-ssim / log-level=2 / input-csp=1 / input-res=1920×1036 / interlace=0 / total-frames=0 / level-idc=40 / high-tier=1 / uhd-bd=0 / ref=3 / no-allow-non-conformance / no-repeat-headers / annexb / no-aud / no-hrd / info / hash=0 / no-temporal-layers / open-gop / min-keyint=24 / keyint=240 / gop-lookahead=0 / bframes=4 / b-adapt=2 / b-pyramid / bframe-bias=0 / rc-lookahead=20 / lookahead-slices=6 / scenecut=40 / radl=0 / no-splice / no-intra-refresh / ctu=64 / min-cu-size=8 / no-rect / no-amp / max-tu-size=32 / tu-inter-depth=1 / tu-intra-depth=1 / limit-tu=0 / rdoq-level=0 / dynamic-rd=0.00 / no-ssim-rd / signhide / no-tskip / nr-intra=0 / nr-inter=0 / no-constrained-intra / strong-intra-smoothing / max-merge=3 / limit-refs=1 / no-limit-modes / me=1 / subme=2 / merange=57 / temporal-mvp / no-hme / weightp / no-weightb / no-analyze-src-pics / deblock=0:0 / sao / no-sao-non-deblock / rd=3 / selective-sao=4 / early-skip / rskip / no-fast-intra / no-tskip-fast / no-cu-lossless / b-intra / no-splitrd-skip / rdpenalty=0 / psy-rd=2.00 / psy-rdoq=0.00 / no-rd-refine / no-lossless / cbqpoffs=0 / crqpoffs=0 / rc=abr / bitrate=2400 / qcomp=0.60 / qpstep=4 / stats-write=0 / stats-read=0 / ipratio=1.40 / pbratio=1.30 / aq-mode=2 / aq-strength=1.00 / cutree / zone-count=0 / no-strict-cbr / qg-size=32 / no-rc-grain / qpmax=69 / qpmin=0 / no-const-vbv / sar=1 / overscan=0 / videoformat=5 / range=0 / colorprim=1 / transfer=1 / colormatrix=1 / chromaloc=0 / display-window=0 / cll=0,0 / min-luma=0 / max-luma=255 / log2-max-poc-lsb=8 / vui-timing-info / vui-hrd-info / slices=1 / no-opt-qp-pps / no-opt-ref-list-length-pps / no-multi-pass-opt-rps / scenecut-bias=0.05 / no-opt-cu-delta-qp / no-aq-motion / no-hdr / no-hdr-opt / no-dhdr10-opt / no-idr-recovery-sei / analysis-reuse-level=5 / scale-factor=0 / refine-intra=0 / refine-inter=0 / refine-mv=1 / refine-ctu-distortion=0 / no-limit-sao / ctu-info=0 / no-lowpass-dct / refine-analysis-type=0 / copy-pic=1 / max-ausize-factor=1.0 / no-dynamic-refine / no-single-sei / no-hevc-aq / no-svt / no-field / qp-adaptation-range=1.00

Default                     : Yes

Forced                      : No

Color range                 : Limited

Color primaries             : BT.709

Transfer characteristics    : BT.709

Matrix coefficients         : BT.709

Duration_Source             : General_Duration

Audio #1

ID                          : 2

Format                      : AC-3

Format/Info                 : Audio Coding 3

Commercial name             : Dolby Digital

Codec ID                    : A_AC3

Duration                    : 1 h 37 min

Bit rate mode               : Constant

Bit rate                    : 384 kb/s

Channel(s)                  : 6 channels

Channel layout              : L R C LFE Ls Rs

Sampling rate               : 48.0 kHz

Frame rate                  : 31.250 FPS (1536 SPF)

Compression mode            : Lossy

Delay relative to video     : -5 ms

Stream size                 : 267 MiB (12%)

Title                       : iTA AC3 5.1

Language                    : Italian

Service kind                : Complete Main

Default                     : Yes

Forced                      : No

Audio #2

ID                          : 3

Format                      : AC-3

Format/Info                 : Audio Coding 3

Commercial name             : Dolby Digital

Codec ID                    : A_AC3

Duration                    : 1 h 37 min

Bit rate mode               : Constant

Bit rate                    : 448 kb/s

Channel(s)                  : 6 channels

Channel layout              : L R C LFE Ls Rs

Sampling rate               : 48.0 kHz

Frame rate                  : 31.250 FPS (1536 SPF)

Compression mode            : Lossy

Delay relative to video     : -5 ms

Stream size                 : 311 MiB (14%)

Title                       : ENG AC3 5.1

Language                    : English

Service kind                : Complete Main

Default                     : No

Forced                      : No

Text #1

ID                          : 4

Format                      : ASS

Codec ID                    : S_TEXT/ASS

Codec ID/Info               : Advanced Sub Station Alpha

Duration                    : 1 h 21 min

Compression mode            : Lossless

Title                       : iTA FORCED

Language                    : Italian

Default                     : Yes

Forced                      : Yes

Text #2

ID                          : 5

Format                      : ASS

Codec ID                    : S_TEXT/ASS

Codec ID/Info               : Advanced Sub Station Alpha

Duration                    : 1 h 31 min

Compression mode            : Lossless

Title                       : iTA REGULAR

Language                    : Italian

Default                     : No

Forced                      : No

Text #3

ID                          : 6

Format                      : ASS

Codec ID                    : S_TEXT/ASS

Codec ID/Info               : Advanced Sub Station Alpha

Duration                    : 1 h 33 min

Compression mode            : Lossless

Title                       : ENG NON UDENTI

Language                    : English

Default                     : No

Forced                      : No

Menu

00:00:00.000                : :Capitolo 01

00:03:42.806                : :Capitolo 02

00:10:37.971                : :Capitolo 03

00:15:29.137                : :Capitolo 04

00:24:09.031                : :Capitolo 05

00:31:51.827                : :Capitolo 06

00:37:21.990                : :Capitolo 07

00:42:05.982                : :Capitolo 08

00:51:25.833                : :Capitolo 09

00:55:34.081                : :Capitolo 10

01:02:46.638                : :Capitolo 11

01:06:14.429                : :Capitolo 12

01:10:54.584                : :Capitolo 13

01:14:52.279                : :Capitolo 14

01:24:48.000                : :Capitolo 15

01:29:18.854                : :Capitolo 16

Wander.Darkly – Vagando.Nell.Download Torrent Magnet

#WanderDarkly #VagandoNell