Voice.of.Silence.2020.KOREAN. Full Torrent Magnet Download

Download Torrent Voice.of.Silence.2020.KOREAN. Movie Full in HD Result. Movie Voice.of.Silence.2020.KOREAN. Torrent Download full. Movie Voice.of.Silence.2020.KOREAN. torrent Magnet Download Full. Voice.of.Silence.2020.KOREAN. Full Movie Torrent Download And Magnet Download For your PC And Mobiles. Latest Movie Voice.of.Silence.2020.KOREAN. Download Link In Bottom.

Torrent And Magnet Links Below

https://www.imdb.com/title/tt10431572/

Video

ID : 1

Format : AVC

Format/Info : Advanced Video Codec

Format profile : [email protected]
Format settings : CABAC / 4 Ref Frames

Format settings, CABAC : Yes

Format settings, Reference frames : 4 frames

Codec ID : V_MPEG4/ISO/AVC

Duration : 1 h 39 min

Bit rate : 10.7 Mb/s

Width : 1 920 pixels

Height : 1 040 pixels

Display aspect ratio : 1.85:1

Frame rate mode : Constant

Frame rate : 23.976 (24000/1001) FPS

Color space : YUV

Chroma subsampling : 4:2:0

Bit depth : 8 bits

Scan type : Progressive

Bits/(Pixel*Frame) : 0.224

Stream size : 7.42 GiB (76%)

Writing library : x264 core 161 r3048 b86ae3c

Encoding settings : cabac=1 / ref=4 / deblock=1:-3:-3 / analyse=0x3:0x133 / me=umh / subme=9 / psy=1 / psy_rd=1.00:0.00 / mixed_ref=1 / me_range=16 / chroma_me=1 / trellis=2 / 8x8dct=1 / cqm=0 / deadzone=21,11 / fast_pskip=0 / chroma_qp_offset=-2 / threads=32 / lookahead_threads=2 / sliced_threads=0 / nr=0 / decimate=1 / interlaced=0 / bluray_compat=0 / constrained_intra=0 / bframes=3 / b_pyramid=2 / b_adapt=2 / b_bias=0 / direct=3 / weightb=1 / open_gop=0 / weightp=2 / keyint=250 / keyint_min=23 / scenecut=40 / intra_refresh=0 / rc=crf / mbtree=0 / crf=18.0 / qcomp=0.60 / qpmin=0 / qpmax=69 / qpstep=4 / ip_ratio=1.40 / pb_ratio=1.30 / aq=1:1.00

Language : English

Default : Yes

Forced : No

Audio

ID : 2

Format : DTS XLL

Format/Info : Digital Theater Systems

Commercial name : DTS-HD Master Audio

Codec ID : A_DTS

Duration : 1 h 39 min

Bit rate mode : Variable

Bit rate : 3 449 kb/s

Channel(s) : 6 channels

Channel layout : C L R Ls Rs LFE

Sampling rate : 48.0 kHz

Frame rate : 93.750 FPS (512 SPF)

Bit depth : 24 bits

Compression mode : Lossless

Stream size : 2.39 GiB (24%)

Title : Korean

Language : Korean

Default : Yes

Forced : No

Text #1

ID : 3

Format : PGS

Muxing mode : zlib

Codec ID : S_HDMV/PGS

Codec ID/Info : Picture based subtitle format used on BDs/HD-DVDs

Duration : 1 h 34 min

Bit rate : 15.8 kb/s

Count of elements : 1488

Stream size : 10.7 MiB (0%)

Title : English

Language : English

Default : Yes

Forced : No

Text #2

ID : 4

Format : PGS

Muxing mode : zlib

Codec ID : S_HDMV/PGS

Codec ID/Info : Picture based subtitle format used on BDs/HD-DVDs

Duration : 1 h 32 min

Bit rate : 14.5 kb/s

Count of elements : 1664

Stream size : 9.61 MiB (0%)

Title : Korean

Language : Korean

Default : No

Forced : No

Menu

00:00:00.000 : en:Chapter 01

00:08:21.543 : en:Chapter 02

00:18:33.988 : en:Chapter 03

00:27:43.620 : en:Chapter 04

00:38:34.646 : en:Chapter 05

00:49:09.864 : en:Chapter 06

00:59:20.390 : en:Chapter 07

01:10:21.843 : en:Chapter 08

01:18:02.928 : en:Chapter 09

01:24:22.182 : en:Chapter 10

01:32:07.105 : en:Chapter 11

01:36:15.061 : en:Chapter 12

Voice.of.Silence.2020.KOREAN.Download Torrent Magnet

#VoiceofSilence2020KOREAN