Victim 2021 x264 720p WebHD H Full Torrent Magnet Download

Download Torrent Victim 2021 x264 720p WebHD H Movie Full in HD Result. Movie Victim 2021 x264 720p WebHD H Torrent Download full. Movie Victim 2021 x264 720p WebHD H torrent Magnet Download Full. Victim 2021 x264 720p WebHD H Full Movie Torrent Download And Magnet Download For your PC And Mobiles. Latest Movie Victim 2021 x264 720p WebHD H Download Link In Bottom.

Torrent And Magnet Links Below

Greets

Admin , Moderator , Noir, Ex0duS5150, theeshiznit, MisterQ, KiNs, UserHEVC, miok, Silmarillion, Mr. Blue, MaDHeX and many more ;

Victim 2021 x264 720p WebHD Hindi THE GOPI SAHI

Format : Matroska

Format version : Version 4

File size : 660 MiB

Duration : 1 h 32 min

Overall bit rate : 997 kb/s

Movie name : Victim 2021 GOPI SAHI

Encoded date : UTC 2021-02-17 10:29:05

Video

ID : 1

Format : AVC

Format/Info : Advanced Video Codec

Format profile : [email protected]
Format settings : CABAC / 5 Ref Frames

Format settings, CABAC : Yes

Format settings, Reference fra : 5 frames

Codec ID : V_MPEG4/ISO/AVC

Duration : 1 h 32 min

Bit rate : 899 kb/s

Width : 1 280 pixels

Height : 582 pixels

Display aspect ratio : 2.2:1

Frame rate mode : Constant

Frame rate : 24.000 FPS

Color space : YUV

Chroma subsampling : 4:2:0

Bit depth : 8 bits

Scan type : Progressive

Bits/(Pixel*Frame) : 0.050

Stream size : 595 MiB (90%)

Title : GOPI SAHI

Writing library : x264 core 157 r2935 545de2f

Matrix coefficients : BT.709

Audio

ID : 2

Format : AAC LC

Format/Info : Advanced Audio Codec Low Complexity

Codec ID : A_AAC-2

Duration : 1 h 32 min

Bit rate : 96.0 kb/s

Channel(s) : 2 channels

Channel layout : L R

Sampling rate : 48.0 kHz

Frame rate : 46.875 FPS (1024 SPF)

Compression mode : Lossy

Delay relative to video : -15 ms

Stream size : 63.8 MiB (10%)

Title : GOPI SAHI

Language : Hindi

Default : Yes

Forced : No

Victim 2021 x264 720p WebHD HDownload Torrent Magnet

#Victim #x264 #720p #WebHD