Vernost.2019.1080p.WEB-DL.AC3 Full Torrent Magnet Download

Download Torrent Vernost.2019.1080p.WEB-DL.AC3 Movie Full in HD Result. Movie Vernost.2019.1080p.WEB-DL.AC3 Torrent Download full. Movie Vernost.2019.1080p.WEB-DL.AC3 torrent Magnet Download Full. Vernost.2019.1080p.WEB-DL.AC3 Full Movie Torrent Download And Magnet Download For your PC And Mobiles. Latest Movie Vernost.2019.1080p.WEB-DL.AC3 Download Link In Bottom.

Torrent And Magnet Links Below

Quote:

*************************************************************

******************************Thumbnbil:*********************

******************************Screenshots:********************

screenshot 1

screenshot 2

screenshot 3

screenshot 4

screenshot 5

screenshot 6

screenshot 7

screenshot 8

screenshot 9

screenshot 0

******************************************************

18+.Vernost.2019.1080p.WEB-DL.AC3.With.Sample.LLG.mp4

Format : MPEG-4

Format profile : Base Media

Codec ID : isom (isom/iso2/avc1/mp41)

File size : 1.18 GiB

Duration : 1 h 18 min

Overall bit rate mode : Variable

Overall bit rate : 2 148 kb/s

Writing application : Lavf57.83.100

Video

ID : 1

Format : AVC

Format/Info : Advanced Video Codec

Format profile : [email protected]
Format settings : CABAC / 1 Ref Frames

Format settings, CABAC : Yes

Format settings, Reference frames : 1 frame

Codec ID : avc1

Codec ID/Info : Advanced Video Coding

Duration : 1 h 18 min

Bit rate mode : Variable

Bit rate : 1 952 kb/s

Maximum bit rate : 6 000 kb/s

Width : 1 920 pixels

Height : 1 080 pixels

Display aspect ratio : 16:9

Frame rate mode : Constant

Frame rate : 25.000 FPS

Color space : YUV

Chroma subsampling : 4:2:0

Bit depth : 8 bits

Scan type : Progressive

Bits/(Pixel*Frame) : 0.038

Stream size : 1.07 GiB (91%)

Codec configuration box : avcC

Audio

ID : 2

Format : AC-3

Format/Info : Audio Coding 3

Commercial name : Dolby Digital

Codec ID : ac-3

Duration : 1 h 18 min

Bit rate mode : Constant

Bit rate : 192 kb/s

Channel(s) : 2 channels

Channel layout : L R

Sampling rate : 48.0 kHz

Frame rate : 31.250 FPS (1536 SPF)

Compression mode : Lossy

Stream size : 108 MiB (9%)

Service kind : Complete Main

Default : Yes

Alternate group : 1

********************************************************

Vernost.2019.1080p.WEB-DL.AC3Download Torrent Magnet

#Vernost20191080pWEBDLAC3