Veins.of.the.World.2020.720p. Full Torrent Magnet Download

Download Torrent Veins.of.the.World.2020.720p. Movie Full in HD Result. Movie Veins.of.the.World.2020.720p. Torrent Download full. Movie Veins.of.the.World.2020.720p. torrent Magnet Download Full. Veins.of.the.World.2020.720p. Full Movie Torrent Download And Magnet Download For your PC And Mobiles. Latest Movie Veins.of.the.World.2020.720p. Download Link In Bottom.

Torrent And Magnet Links Below

Release: Veins.of.the.World.2020.720p.WEBRip.x264-gooz

IMDB: https://www.imdb.com/title/tt9077352

Subtitle: English (soft)

Plot: A young Mongolian boy turns grief into a source of power, after the death of his father. Official submission of Mongolia for the ‘Best International Feature Film’ category of the 93rd Academy Awards in 2021.

General

Complete name : Veins.of.the.World.2020.720p.WEBRip.x264-gooz.mkv

Format : Matroska

Format version : Version 4

File size : 2.16 GiB

Duration : 1 h 39 min

Overall bit rate : 3 097 kb/s

Encoded date : UTC 2021-02-08 18:18:40

Writing application : mkvmerge v50.0.0 (‘Awakenings’) 64-bit

Writing library : libebml v1.4.0 + libmatroska v1.6.2

Video

ID : 1

Format : AVC

Format/Info : Advanced Video Codec

Format profile : [email protected]
Format settings : CABAC / 1 Ref Frames

Format settings, CABAC : Yes

Format settings, Reference : 1 frame

Format settings, GOP : M=1, N=48

Codec ID : V_MPEG4/ISO/AVC

Duration : 1 h 39 min

Bit rate : 3 000 kb/s

Width : 1 280 pixels

Height : 720 pixels

Display aspect ratio : 16:9

Frame rate mode : Constant

Frame rate : 24.000 FPS

Color space : YUV

Chroma subsampling : 4:2:0

Bit depth : 8 bits

Scan type : Progressive

Bits/(Pixel*Frame) : 0.136

Stream size : 2.07 GiB (96%)

Writing library : x264 core 148

Encoding settings : cabac=1 / ref=1 / deblock=1:0:0 / analyse=0x1:0x1 / me=dia / subme=1 / psy=1 / psy_rd=1.00:0.00 / mixed_ref=0 / me_range=16 / chroma_me=1 / trellis=0 / 8x8dct=0 / cqm=0 / deadzone=21,11 / fast_pskip=1 / chroma_qp_offset=0 / threads=22 / lookahead_threads=3 / sliced_threads=0 / nr=0 / decimate=1 / interlaced=0 / bluray_compat=0 / constrained_intra=0 / bframes=0 / weightp=1 / keyint=48 / keyint_min=24 / scenecut=0 / intra_refresh=0 / rc_lookahead=0 / rc=abr / mbtree=0 / bitrate=3000 / ratetol=1.0 / qcomp=0.60 / qpmin=0 / qpmax=69 / qpstep=4 / vbv_maxrate=4500 / vbv_bufsize=9000 / nal_hrd=none / filler=0 / ip_ratio=1.40 / aq=1:1.00

Default : Yes

Forced : No

Audio

ID : 2

Format : AAC LC

Format/Info : Advanced Audio Codec Low Complexity

Codec ID : A_AAC-2

Duration : 1 h 39 min

Bit rate : 128 kb/s

Channel(s) : 2 channels

Channel layout : L R

Sampling rate : 48.0 kHz

Frame rate : 46.875 FPS (1024 SPF)

Compression mode : Lossy

Stream size : 91.5 MiB (4%)

Language : Mongolian

Default : Yes

Forced : No

Text

ID : 3

Format : UTF-8

Codec ID : S_TEXT/UTF8

Codec ID/Info : UTF-8 Plain Text

Duration : 1 h 30 min

Bit rate : 24 b/s

Count of elements : 533

Stream size : 16.1 KiB (0%)

Language : English

Default : Yes

Forced : No

SCREENSHOTS:





Veins.of.the.World.2020.720p.Download Torrent Magnet

#VeinsoftheWorld2020720p