Valhalla.1986.DANISH-English. Full Torrent Magnet Download

Download Torrent Valhalla.1986.DANISH-English. Movie Full in HD Result. Movie Valhalla.1986.DANISH-English. Torrent Download full. Movie Valhalla.1986.DANISH-English. torrent Magnet Download Full. Valhalla.1986.DANISH-English. Full Movie Torrent Download And Magnet Download For your PC And Mobiles. Latest Movie Valhalla.1986.DANISH-English. Download Link In Bottom.

Torrent And Magnet Links Below

Valhalla.1986.DANISH-English.1080p.BluRay.x265-GhosT.mkv
Format : Matroska

Format version : Version 4

File size : 1.34 GiB

Duration : 1 h 18 min

Overall bit rate : 2 451 kb/s

Encoded date : UTC 2021-05-21 23:19:21

Writing application : mkvmerge v56.1.0 (‘My Friend’) 64-bit

Writing library : libebml v1.4.2 + libmatroska v1.6.4



Video
ID : 1

Format : HEVC

Format/Info : High Efficiency Video Coding

Format profile : Main [email protected]@Main

Codec ID : V_MPEGH/ISO/HEVC

Duration : 1 h 18 min

Bit rate : 2 000 kb/s

Width : 1 480 pixels

Height : 1 080 pixels

Display aspect ratio : 1.370

Frame rate mode : Constant

Frame rate : 23.976 (24000/1001) FPS

Color space : YUV

Chroma subsampling : 4:2:0

Bit depth : 10 bits

Bits/(Pixel*Frame) : 0.052

Stream size : 1.09 GiB (82%)

Writing library : x265 3.3+4-rarbg-30eb4de83092:[Linux][GCC 8.3.1][64 bit] 10bit

Audio #1
ID : 2

Format : AAC LC

Format/Info : Advanced Audio Codec Low Complexity

Codec ID : A_AAC-2

Duration : 1 h 18 min

Bit rate : 224 kb/s

Channel(s) : 2 channels

Channel layout : L R

Sampling rate : 48.0 kHz

Frame rate : 46.875 FPS (1024 SPF)

Compression mode : Lossy

Delay relative to video : -43 ms

Stream size : 125 MiB (9%)

Language : Danish

Default : Yes

Forced : No

Audio #2
ID : 3

Format : AAC LC

Format/Info : Advanced Audio Codec Low Complexity

Codec ID : A_AAC-2

Duration : 1 h 18 min

Bit rate : 224 kb/s

Channel(s) : 2 channels

Channel layout : L R

Sampling rate : 48.0 kHz

Frame rate : 46.875 FPS (1024 SPF)

Compression mode : Lossy

Delay relative to video : -43 ms

Stream size : 125 MiB (9%)

Language : English

Default : No

Forced : No

Valhalla.1986.DANISH-English.Download Torrent Magnet

#Valhalla1986DANISHEnglish