Us (2019) 720p BRRip x264 AAC Full Torrent Magnet Download

Download Torrent Us (2019) 720p BRRip x264 AAC Movie Full in HD Result. Movie Us (2019) 720p BRRip x264 AAC Torrent Download full. Movie Us (2019) 720p BRRip x264 AAC torrent Magnet Download Full. Us (2019) 720p BRRip x264 AAC Full Movie Torrent Download And Magnet Download For your PC And Mobiles. Latest Movie Us (2019) 720p BRRip x264 AAC Download Link In Bottom.

Torrent And Magnet Links Below

Us (2019)

A family’s serene beach vacation turns to chaos when their doppelgängers appear and begin to terrorize them.

Director: Jordan Peele

Cast: Lupita Nyong’o, Winston Duke, Elisabeth Moss.

Format : Matroska
Format version : Version 4
File size : 1.06 GiB
Duration : 1 h 56 min
Overall bit rate : 1 305 kb/s

Video
ID : 1
Format : AVC
Format/Info : Advanced Video Codec
Format profile : [email protected]
Format settings : CABAC / 4 Ref Frames
Format settings, CABAC : Yes
Format settings, Reference frames : 4 frames
Codec ID : V_MPEG4/ISO/AVC
Duration : 1 h 56 min
Bit rate : 1 050 kb/s
Width : 1 280 pixels
Height : 534 pixels

Audio #1
ID : 2
Format : AAC LC SBR
Format/Info : Advanced Audio Codec Low Complexity with Spectral Band Replication
Commercial name : HE-AAC
Format settings : Explicit
Codec ID : A_AAC-2
Duration : 1 h 56 min
Bit rate : 127 kb/s
Channel(s) : 2 channels
Channel layout : L R
Sampling rate : 48.0 kHz
Frame rate : 23.438 FPS (2048 SPF)
Compression mode : Lossy
Delay relative to video : -43 ms
Stream size : 106 MiB (10%)
Language : Hindi
Default : Yes
Forced : Yes

Audio #2
ID : 3
Format : AAC LC SBR
Format/Info : Advanced Audio Codec Low Complexity with Spectral Band Replication
Commercial name : HE-AAC
Format settings : Explicit
Codec ID : A_AAC-2
Duration : 1 h 56 min
Bit rate : 127 kb/s
Channel(s) : 2 channels
Channel layout : L R
Sampling rate : 48.0 kHz
Frame rate : 23.438 FPS (2048 SPF)
Compression mode : Lossy
Delay relative to video : -43 ms
Stream size : 106 MiB (10%)
Language : English
Default : No
Forced : No

Text
ID : 4
Format : UTF-8
Codec ID : S_TEXT/UTF8
Codec ID/Info : UTF-8 Plain Text
Duration : 1 h 52 min
Bit rate : 43 b/s
Count of elements : 1066
Stream size : 35.6 KiB (0%)
Language : English

Us (2019) 720p BRRip x264 AACDownload Torrent Magnet

#720p #BRRip #x264 #AAC