Us 2019 1080p NF WEB-DL Hindi Full Torrent Magnet Download

Download Torrent Us 2019 1080p NF WEB-DL Hindi Movie Full in HD Result. Movie Us 2019 1080p NF WEB-DL Hindi Torrent Download full. Movie Us 2019 1080p NF WEB-DL Hindi torrent Magnet Download Full. Us 2019 1080p NF WEB-DL Hindi Full Movie Torrent Download And Magnet Download For your PC And Mobiles. Latest Movie Us 2019 1080p NF WEB-DL Hindi Download Link In Bottom.

Torrent And Magnet Links Below

Us 2019 1080p NF WEB-DL Hindi-English DDP5.1 H264-Ranvijay

General

Format                                   : Matroska

Format version                           : Version 4

File size                                : 3.27 GiB

Duration                                 : 1 h 56 min

Overall bit rate mode                    : Variable

Overall bit rate                         : 4 016 kb/s

Video

ID                                       : 1

Format                                   : AVC

Format/Info                              : Advanced Video Codec

Format profile                           : [email protected]
Format settings                          : CABAC / 3 Ref Frames

Format settings, CABAC                   : Yes

Format settings, Reference frames        : 3 frames

Codec ID                                 : V_MPEG4/ISO/AVC

Duration                                 : 1 h 56 min

Bit rate mode                            : Variable

Bit rate                                 : 2 740 kb/s

Maximum bit rate                         : 4 110 kb/s

Width                                    : 1 920 pixels

Height                                   : 1 080 pixels

Display aspect ratio                     : 16:9

Frame rate mode                          : Constant

Frame rate                               : 23.976 (24000/1001) FPS

Color space                              : YUV

Chroma subsampling                       : 4:2:0

Bit depth                                : 8 bits

Scan type                                : Progressive

Bits/(Pixel*Frame)                       : 0.055

Stream size                              : 2.22 GiB (68%)

Default                                  : Yes

Forced                                   : No

Audio #1

ID                                       : 2

Format                                   : E-AC-3

Format/Info                              : Enhanced AC-3

Commercial name                          : Dolby Digital Plus

Codec ID                                 : A_EAC3

Duration                                 : 1 h 56 min

Bit rate mode                            : Constant

Bit rate                                 : 640 kb/s

Channel(s)                               : 6 channels

Channel layout                           : L R C LFE Ls Rs

Sampling rate                            : 48.0 kHz

Frame rate                               : 31.250 FPS (1536 SPF)

Compression mode                         : Lossy

Stream size                              : 533 MiB (16%)

Title                                    : English

Language                                 : English

Service kind                             : Complete Main

Default                                  : No

Forced                                   : No

Audio #2

ID                                       : 3

Format                                   : E-AC-3

Format/Info                              : Enhanced AC-3

Commercial name                          : Dolby Digital Plus

Codec ID                                 : A_EAC3

Duration                                 : 1 h 56 min

Bit rate mode                            : Constant

Bit rate                                 : 640 kb/s

Channel(s)                               : 6 channels

Channel layout                           : L R C LFE Ls Rs

Sampling rate                            : 48.0 kHz

Frame rate                               : 31.250 FPS (1536 SPF)

Compression mode                         : Lossy

Stream size                              : 533 MiB (16%)

Title                                    : Hindi

Language                                 : Hindi

Service kind                             : Complete Main

Default                                  : No

Forced                                   : No

SUBTITLES…..:English,Arabic,Chinese,Chinese,Czech,French,Greek,Hebrew,Hindi,Hungarian,Indonesian,Korean,Malay,Polish,Romanian,Russian,Thai,Turkish,Ukrainian,Vietnamese,

Us 2019 1080p NF WEB-DL HindiDownload Torrent Magnet

#1080p #WEBDL #Hindi