Urfi 2015 Marathi 1080p Web-D Full Torrent Magnet Download

Download Torrent Urfi 2015 Marathi 1080p Web-D Movie Full in HD Result. Movie Urfi 2015 Marathi 1080p Web-D Torrent Download full. Movie Urfi 2015 Marathi 1080p Web-D torrent Magnet Download Full. Urfi 2015 Marathi 1080p Web-D Full Movie Torrent Download And Magnet Download For your PC And Mobiles. Latest Movie Urfi 2015 Marathi 1080p Web-D Download Link In Bottom.

Torrent And Magnet Links Below








General

Complete name : Urfi 2015 Marathi 1080p Web-DL x264 AAC ESubs [TMB].mkv

Format : Matroska

Format version : Version 4

File size : 1.81 GiB

Duration : 1 h 55 min

Overall bit rate mode : Variable

Overall bit rate : 2 235 kb/s

Video

Format : AVC

Format/Info : Advanced Video Codec

Format profile : [email protected]
Format settings : CABAC / 4 Ref Frames

Format settings, CABAC : Yes

Format settings, Reference : 4 frames

Codec ID : V_MPEG4/ISO/AVC

Duration : 1 h 55 min

Bit rate mode : Variable

Bit rate : 2 043 kb/s

Maximum bit rate : 2 700 kb/s

Width : 1 920 pixels

Height : 1 080 pixels

Display aspect ratio : 16:9

Frame rate mode : Constant

Frame rate : 25.000 FPS

Color space : YUV

Chroma subsampling : 4:2:0

Bit depth : 8 bits

Scan type : Progressive

Bits/(Pixel*Frame) : 0.039

Stream size : 1.65 GiB (91%)

Audio

Format : AAC LC

Format/Info : Advanced Audio Codec Low Complexity

Codec ID : A_AAC-2

Duration : 1 h 55 min

Bit rate : 192 kb/s

Channel(s) : 2 channels

Channel layout : L R

Sampling rate : 48.0 kHz

Frame rate : 46.875 FPS (1024 SPF)

Compression mode : Lossy

Delay relative to video : -33 ms

Stream size : 157 MiB (8%)

Text

Format : UTF-8

Codec ID : S_TEXT/UTF8

Codec ID/Info : UTF-8 Plain Text

Duration : 1 h 53 min

Bit rate : 60 b/s

Count of elements : 1583

Stream size : 50.1 KiB (0%)

Uploaded & Shared by TMB

Seeding 24×7… Extreme Seeding…

Enjoy!

Urfi 2015 Marathi 1080p Web-DDownload Torrent Magnet

#Urfi #Marathi #1080p #WebD