Unlocked 2017 x264 720p WebHD Full Torrent Magnet Download

Download Torrent Unlocked 2017 x264 720p WebHD Movie Full in HD Result. Movie Unlocked 2017 x264 720p WebHD Torrent Download full. Movie Unlocked 2017 x264 720p WebHD torrent Magnet Download Full. Unlocked 2017 x264 720p WebHD Full Movie Torrent Download And Magnet Download For your PC And Mobiles. Latest Movie Unlocked 2017 x264 720p WebHD Download Link In Bottom.

Torrent And Magnet Links Below

Greets

Admin , Moderator , Noir, Ex0duS5150, theeshiznit, MisterQ, UserHEVC, miok, Silmarillion, Mr. Blue, MaDHeX and many more ;

Join Us On TeleGram

https://t.me/gopisahit

Unlocked 2017 x264 720p WebHD English Hindi Telugu Tamil THE GOPI SAHI

Format : Matroska

Format version : Version 4

File size : 903 MiB

Duration : 1 h 38 min

Overall bit rate : 1 288 kb/s

Movie name : Unlocked 2017 GOPI SAHI

Video

ID : 1

Format : AVC

Format/Info : Advanced Video Codec

Format profile : [email protected]
Format settings : CABAC / 5 Ref Frames

Format settings, CABAC : Yes

Format settings, Reference fra : 5 frames

Codec ID : V_MPEG4/ISO/AVC

Duration : 1 h 38 min

Bit rate : 899 kb/s

Width : 1 280 pixels

Height : 536 pixels

Display aspect ratio : 2.40:1

Frame rate mode : Constant

Frame rate : 25.000 FPS

Color space : YUV

Chroma subsampling : 4:2:0

Bit depth : 8 bits

Scan type : Progressive

Bits/(Pixel*Frame) : 0.052

Stream size : 630 MiB (70%)

Title : GOPI SAHI

Writing library : x264 core 157 r2935 545de2f

Audio #1

ID : 2

Format : AAC LC

Format/Info : Advanced Audio Codec Low Complexity

Codec ID : A_AAC-2

Duration : 1 h 38 min

Bit rate : 96.0 kb/s

Channel(s) : 2 channels

Channel layout : L R

Sampling rate : 44.1 kHz

Frame rate : 43.066 FPS (1024 SPF)

Compression mode : Lossy

Delay relative to video : 14 ms

Stream size : 67.5 MiB (7%)

Title : GOPI SAHI

Language : Hindi

Default : Yes

Forced : No

Audio #2

ID : 3

Format : AAC LC

Format/Info : Advanced Audio Codec Low Complexity

Codec ID : A_AAC-2

Duration : 1 h 38 min

Bit rate : 96.0 kb/s

Channel(s) : 2 channels

Channel layout : L R

Sampling rate : 44.1 kHz

Frame rate : 43.066 FPS (1024 SPF)

Compression mode : Lossy

Delay relative to video : 14 ms

Stream size : 67.6 MiB (7%)

Title : GOPI SAHI

Language : English

Default : No

Forced : No

Audio #3

ID : 4

Format : AAC LC

Format/Info : Advanced Audio Codec Low Complexity

Codec ID : A_AAC-2

Duration : 1 h 38 min

Bit rate : 96.0 kb/s

Channel(s) : 2 channels

Channel layout : L R

Sampling rate : 44.1 kHz

Frame rate : 43.066 FPS (1024 SPF)

Compression mode : Lossy

Delay relative to video : 14 ms

Stream size : 67.6 MiB (7%)

Title : GOPI SAHI

Language : Tamil

Default : No

Forced : No

Audio #4

ID : 5

Format : AAC LC

Format/Info : Advanced Audio Codec Low Complexity

Codec ID : A_AAC-2

Duration : 1 h 38 min

Bit rate : 96.0 kb/s

Channel(s) : 2 channels

Channel layout : L R

Sampling rate : 44.1 kHz

Frame rate : 43.066 FPS (1024 SPF)

Compression mode : Lossy

Delay relative to video : 14 ms

Stream size : 67.5 MiB (7%)

Title : GOPI SAHI

Language : Telugu

Default : No

Forced : No

Unlocked 2017 x264 720p WebHDDownload Torrent Magnet

#Unlocked #x264 #720p #WebHD