Un sac de billes (1975) BluRa Full Torrent Magnet Download

Download Torrent Un sac de billes (1975) BluRa Movie Full in HD Result. Movie Un sac de billes (1975) BluRa Torrent Download full. Movie Un sac de billes (1975) BluRa torrent Magnet Download Full. Un sac de billes (1975) BluRa Full Movie Torrent Download And Magnet Download For your PC And Mobiles. Latest Movie Un sac de billes (1975) BluRa Download Link In Bottom.

Torrent And Magnet Links Below

IMDB

Code:


General

Complete name: Un.sac.de.billes.(1975).BluRay.Remastered.1080p.DTS.[Borsalino].EN.srt

Format: SubRip

File size: 106 KiB

Text

Format: SubRip

Compression mode: Lossless

General

Complete name: Un.sac.de.billes.(1975).BluRay.Remastered.1080p.DTS.[Borsalino].ES.srt

Format: SubRip

File size: 107 KiB

Text

Format: SubRip

Compression mode: Lossless

General

Complete name: Un.sac.de.billes.(1975).BluRay.Remastered.1080p.DTS.[Borsalino].mkv

Format: Matroska

Format version: Version 4

File size: 7.92 GiB

Duration: 1 h 39 min

Overall bit rate mode: Variable

Overall bit rate: 11.4 Mb/s

Movie name: Un.sac.de.billes.(1975).BluRay.Remastered.1080p.DTS.[Borsalino]
Writing application: mkvmerge v56.1.0 (‘My Friend’) 64-bit

Writing library: libebml v1.4.2 + libmatroska v1.6.4

Video

ID: 1

Format: AVC

Format/Info: Advanced Video Codec

Format profile: [email protected]
Format settings: CABAC / 4 Ref Frames

Format settings, CABAC: Yes

Format settings, Reference frames: 4 frames

Codec ID: V_MPEG4/ISO/AVC

Duration: 1 h 39 min

Bit rate: 9 999 kb/s

Width: 1 796 pixels

Height: 1 080 pixels

Display aspect ratio: 5:3

Frame rate mode: Constant

Frame rate: 23.976 (24000/1001) FPS

Color space: YUV

Chroma subsampling: 4:2:0

Bit depth: 8 bits

Scan type: Progressive

Bits/(Pixel*Frame): 0.215

Stream size: 6.97 GiB (88%)

Title: French

Writing library: x264 core 161 r3048 b86ae3c

Encoding settings: cabac=1 / ref=4 / deblock=1:-3:-3 / analyse=0x3:0x133 / me=umh / subme=10 / psy=1 / psy_rd=1.00:0.00 / mixed_ref=1 / me_range=32 / chroma_me=1 / trellis=2 / 8x8dct=1 / cqm=0 / deadzone=21,11 / fast_pskip=1 / chroma_qp_offset=-2 / threads=12 / lookahead_threads=2 / sliced_threads=0 / nr=10 / decimate=1 / interlaced=0 / bluray_compat=0 / constrained_intra=0 / bframes=8 / b_pyramid=2 / b_adapt=2 / b_bias=0 / direct=3 / weightb=1 / open_gop=0 / weightp=2 / keyint=240 / keyint_min=23 / scenecut=40 / intra_refresh=0 / rc_lookahead=60 / rc=2pass / mbtree=1 / bitrate=9999 / ratetol=1.0 / qcomp=0.60 / qpmin=0 / qpmax=69 / qpstep=4 / cplxblur=20.0 / qblur=0.5 / vbv_maxrate=50000 / vbv_bufsize=50000 / nal_hrd=none / filler=0 / ip_ratio=1.40 / aq=1:1.00

Language: French

Default: Yes

Forced: No

Color range: Limited

Color primaries: BT.709

Transfer characteristics: BT.709

Matrix coefficients: BT.709

Audio

ID: 2

Format: DTS XLL

Format/Info: Digital Theater Systems

Commercial name: DTS-HD Master Audio

Codec ID: A_DTS

Duration: 1 h 39 min

Bit rate mode: Variable

Bit rate: 1 346 kb/s

Channel(s): 2 channels

Channel layout: L R

Sampling rate: 48.0 kHz

Frame rate: 93.750 FPS (512 SPF)

Bit depth: 24 bits

Compression mode: Lossless

Stream size: 961 MiB (12%)

Title: French

Language: French

Default: Yes

Forced: No

Text #1

ID: 3

Format: UTF-8

Codec ID: S_TEXT/UTF8

Codec ID/Info: UTF-8 Plain Text

Duration: 47 s 965 ms

Bit rate: 39 b/s

Count of elements: 10

Stream size: 239 Bytes (0%)

Title: French

Language: French

Default: Yes

Forced: Yes

Text #2

ID: 4

Format: PGS

Muxing mode: zlib

Codec ID: S_HDMV/PGS

Codec ID/Info: Picture based subtitle format used on BDs/HD-DVDs

Duration: 1 h 39 min

Bit rate: 37.0 kb/s

Count of elements: 2965

Stream size: 26.3 MiB (0%)

Title: French

Language: French

Default: No

Forced: No

Spoken language

Subtitles (srt files)












Un sac de billes (1975) BluRaDownload Torrent Magnet

#sac #billes #BluRa