Un drôle de dimanche (1958) D Full Torrent Magnet Download

Download Torrent Un drôle de dimanche (1958) D Movie Full in HD Result. Movie Un drôle de dimanche (1958) D Torrent Download full. Movie Un drôle de dimanche (1958) D torrent Magnet Download Full. Un drôle de dimanche (1958) D Full Movie Torrent Download And Magnet Download For your PC And Mobiles. Latest Movie Un drôle de dimanche (1958) D Download Link In Bottom.

Torrent And Magnet Links Below

IMDB

Code:


General

Complete name : Un.drôle.de.dimanche.(1958).DVDrip.(1024x576px).AAC.[Borsalino].FR.srt

Format : SubRip

File size : 94.7 KiB

Text

Format : SubRip

Compression mode : Lossless

General

Complete name : Un.drôle.de.dimanche.(1958).DVDrip.(1024x576px).AAC.[Borsalino].mkv

Format : Matroska

Format version : Version 4

File size : 1.55 GiB

Duration : 1 h 29 min

Overall bit rate : 2 469 kb/s

Movie name : Un.drôle.de.dimanche.(1958).DVDrip.(1024x576px).AAC.[Borsalino]
Writing application : mkvmerge v56.1.0 (‘My Friend’) 64-bit

Writing library : libebml v1.4.2 + libmatroska v1.6.4

Video

ID : 1

Format : AVC

Format/Info : Advanced Video Codec

Format profile : [email protected]
Format settings : CABAC / 4 Ref Frames

Format settings, CABAC : Yes

Format settings, Reference frames : 4 frames

Format settings, GOP : M=3, N=30

Codec ID : V_MPEG4/ISO/AVC

Duration : 1 h 29 min

Bit rate : 2 274 kb/s

Width : 1 024 pixels

Height : 576 pixels

Display aspect ratio : 16:9

Frame rate mode : Constant

Frame rate : 25.000 FPS

Color space : YUV

Chroma subsampling : 4:2:0

Bit depth : 8 bits

Scan type : Progressive

Bits/(Pixel*Frame) : 0.154

Stream size : 1.43 GiB (92%)

Title : French

Language : French

Default : Yes

Forced : No

Audio

ID : 2

Format : AAC LC

Format/Info : Advanced Audio Codec Low Complexity

Codec ID : A_AAC-2

Duration : 1 h 29 min

Bit rate : 192 kb/s

Channel(s) : 2 channels

Channel layout : L R

Sampling rate : 48.0 kHz

Frame rate : 46.875 FPS (1024 SPF)

Compression mode : Lossy

Stream size : 123 MiB (8%)

Title : French

Language : French

Default : Yes

Forced : No

Spoken language

Subtitles (srt files)









Un drôle de dimanche (1958) DDownload Torrent Magnet

#drôle #dimanche